<?xml version="1.0" encoding="UTF-8" standalone="no"?>
<!DOCTYPE svg  PUBLIC '-//W3C//DTD SVG 1.1//EN'  'http://www.w3.org/Graphics/SVG/1.1/DTD/svg11.dtd'>
<svg xmlns="http://www.w3.org/2000/svg">
<defs>
<font id="Lora-Bold" horiz-adv-x="1368">
<font-face underline-position="-103" font-weight="700" descent="-410" panose-1="2 0 8 3 0 0 0 2 0 4" units-per-em="2048" unicode-range="U+0020-F6CE" bbox="-180 -563 2619.03 2061" x-height="1024" underline-thickness="102" font-family="Lora" ascent="1638" cap-height="1434"/>
<missing-glyph horiz-adv-x="2048"/>
<glyph glyph-name=".notdef" horiz-adv-x="2048"/>
<glyph glyph-name=".null" horiz-adv-x="2048"/>
<glyph glyph-name="nonmarkingreturn" horiz-adv-x="0"/>
<glyph glyph-name="space" horiz-adv-x="539" unicode=" "/>
<glyph glyph-name="exclam" horiz-adv-x="528" unicode="!" d="M333 437h-139l-77 844q-1 9 -1 18q0 24 6 48q8 33 26.5 59.5t47.5 43.5t68 17q41 0 70 -17t47 -43.5t25 -59.5q5 -23 5 -46q0 -10 -1 -20zM412 126q0 -33 -12.5 -62t-33.5 -50.5t-48 -34t-56 -12.5q-30 0 -56.5 12.5t-47 34t-32 50.5t-11.5 62t12 62.5t32.5 51.5 t47.5 34.5t57 12.5q32 0 59 -12.5t47 -34.5t31 -51.5t11 -62.5z"/>
<glyph glyph-name="quotedbl" horiz-adv-x="667" unicode='&quot;' d="M398 1006l-17 461h198l-17 -461h-164zM105 1006l-17 461h198l-17 -461h-164z"/>
<glyph glyph-name="numbersign" horiz-adv-x="1784" unicode="#" d="M666 497h350l102 404h-354zM332 -33l83 348h-340l43 182h335l102 404h-345l43 182h341l91 384h205l-88 -384h355l91 384h205l-88 -384h343v-2l-41 -180h-340l-97 -404h342l-42 -182h-337l-80 -348h-218l83 348h-349l-80 -348h-217z"/>
<glyph glyph-name="dollar" horiz-adv-x="1205" unicode="$" d="M618 115q55 0 97 15.5t71 43t44 65t15 81.5q0 52 -25 88.5t-66 64.5t-95.5 50.5t-112.5 46.5q-89 36 -169 82t-141 106.5t-97 138.5t-36 179q0 60 18 126t64 123t125.5 96t202.5 45v248h192l-2 -268q91 -24 165 -77h2l-7 84h158v-479h-134q-28 172 -105 258.5t-220 86.5 q-44 0 -79.5 -13t-60.5 -36.5t-39 -56t-14 -70.5q0 -48 15.5 -84t52 -67.5t96 -63t147.5 -71.5q51 -23 103 -48.5t100.5 -56.5t91.5 -67.5t74.5 -82t50 -100.5t18.5 -122q0 -80 -26 -148.5t-75.5 -121.5t-122.5 -88t-167 -48l-1 -289h-187l-2 289q-66 10 -132 33.5 t-127 60.5h-2l7 -87h-158v479h134q28 -174 121 -259.5t238 -85.5z"/>
<glyph glyph-name="percent" horiz-adv-x="1852" unicode="%" d="M999 361q0 71 26 144t75.5 131.5t123 95.5t163.5 37q93 0 164.5 -34.5t120 -90t73.5 -125.5t25 -140q0 -81 -29.5 -155.5t-81.5 -131.5t-121.5 -91t-150.5 -34q-95 0 -167 33t-121.5 88t-74.5 126t-25 147zM1250 391q0 -38 6 -83.5t21 -84.5t42 -65.5t69 -26.5 q37 0 62.5 20.5t40.5 52.5t21.5 70.5t6.5 74.5q0 40 -6.5 86t-22 85t-41.5 65t-65 26t-65 -23.5t-41.5 -57t-21.5 -71.5t-6 -68zM84 1059q0 71 26 144t75.5 131.5t121.5 95.5t165 37t164.5 -34.5t120 -90t73.5 -125.5t25 -140q0 -81 -29.5 -155.5t-81.5 -131.5t-121.5 -91 t-150.5 -34q-95 0 -167 33t-121.5 88t-74.5 126t-25 147zM1578 1332l-1183 -1366l-133 124l1167 1377zM335 1089q0 -38 6 -83.5t21 -84.5t42 -65.5t69 -26.5q37 0 62.5 20.5t40.5 52.5t21.5 70.5t6.5 74.5q0 40 -6.5 86t-22 85t-41.5 65t-65 26t-65 -23.5t-41.5 -57 t-21.5 -71.5t-6 -68z"/>
<glyph glyph-name="ampersand" horiz-adv-x="1372" unicode="&amp;" d="M443 1139q0 -31 9 -68t24.5 -75t37 -74.5t46.5 -66.5q39 30 67.5 68.5t48 79.5t29 80.5t9.5 71.5q0 75 -35.5 121t-99.5 46q-58 0 -97 -46.5t-39 -136.5zM601 113q76 0 140.5 25.5t115.5 70.5l-103 93q-59 53 -106 97.5t-86 84t-72 75.5t-64 72q-29 -24 -48.5 -55 t-31 -62.5t-16.5 -61.5t-5 -52q0 -141 73 -214t203 -73zM1139 536q0 -119 -40 -221l32 -27q39 -33 75.5 -61.5t68.5 -48.5t59 -31.5t48 -11.5v-135h-218q-19 0 -74 30t-128 87q-81 -72 -188 -111t-239 -39q-89 0 -176.5 22t-156.5 68.5t-111.5 118.5t-42.5 173q0 69 24 130 t66.5 112t101 91t127.5 66q-55 60 -88.5 111t-51.5 96.5t-23.5 88t-5.5 85.5q1 77 29.5 139.5t79.5 106.5t122.5 68t159.5 24q81 0 147 -26t112.5 -70.5t72 -103t25.5 -122.5q0 -63 -24.5 -121t-66 -109t-94.5 -93.5t-110 -75.5q6 -7 36.5 -38.5t76.5 -77.5t102.5 -101 t114.5 -109h2q6 24 8.5 50t2.5 52q0 42 -7 71t-20.5 47.5t-34 27t-47.5 10.5v131h344v-154q-20 1 -50 3.5t-62 4.5v-2q22 -48 22 -125z"/>
<glyph glyph-name="quotesingle" horiz-adv-x="386" unicode="&apos;" d="M106 1006l-19 461h212l-18 -461h-175z"/>
<glyph glyph-name="parenleft" horiz-adv-x="607" unicode="(" d="M327 489q0 -46 4.5 -116.5t15.5 -155.5t30 -179t47.5 -186.5t68.5 -179t93 -156.5l-74 -71q-51 47 -105 110.5t-105 141.5t-97 169t-80.5 191.5t-54.5 209t-20 222.5q0 113 20 223.5t54 213.5t80 197t97 175t105 146.5t105 111.5l75 -71q-53 -70 -93 -158t-68.5 -183.5 t-47.5 -192.5t-30 -184.5t-15.5 -159.5t-4.5 -118z"/>
<glyph glyph-name="parenright" horiz-adv-x="607" unicode=")" d="M280 512q0 46 -4.5 116.5t-15.5 155.5t-30 179t-47.5 186.5t-68.5 179t-93 156.5l74 71q51 -47 105 -110.5t105 -141.5t97 -169t80.5 -191.5t54.5 -209t20 -222.5q0 -113 -20 -223.5t-54 -213.5t-80 -197t-97 -175t-105 -146.5t-105 -111.5l-75 71q53 70 93 158 t68.5 183.5t47.5 192.5t30 184.5t15.5 159.5t4.5 118z"/>
<glyph glyph-name="asterisk" horiz-adv-x="1092" unicode="*" d="M497 1060q-30 91 -43.5 154.5t-13.5 105.5q0 27 4 53t16 47t33 34t54 13t53.5 -13t32.5 -34t16 -47t4 -53q0 -43 -13.5 -106t-43.5 -154q59 43 104 71.5t81 45.5t64.5 24t54.5 7q16 0 34.5 -5.5t34 -17.5t25.5 -32.5t10 -50.5q0 -23 -9.5 -40.5t-25 -31t-36 -23.5 t-41.5 -16q-44 -14 -107 -20t-159 -6q78 -57 126 -99.5t73 -76.5q18 -25 31 -52.5t13 -53.5q0 -16 -8 -33t-22 -31.5t-33 -24t-40 -9.5q-35 0 -63.5 23.5t-49.5 53.5q-26 36 -52 95t-54 150q-30 -92 -56 -150t-52 -93q-23 -31 -50.5 -55t-62.5 -24q-21 0 -39.5 9.5 t-32.5 23.5t-22 31.5t-8 33.5q0 29 12.5 58.5t41 63.5t74.5 73t114 87q-98 0 -160.5 6.5t-104.5 20.5q-22 7 -42.5 16.5t-36 23t-25 31t-9.5 40.5q0 30 9.5 50.5t24.5 32.5t33 17.5t35 5.5q27 0 56.5 -7.5t66 -25t81.5 -46t103 -70.5z"/>
<glyph glyph-name="plus" horiz-adv-x="1078" unicode="+" d="M82 748l353 -2v366h202v-366l359 -2v-188l-359 -1v-387h-202v386l-353 -1v195z"/>
<glyph glyph-name="comma" horiz-adv-x="512" unicode="," d="M425 65q0 -100 -45.5 -214.5t-142.5 -232.5l-79 57q16 21 36.5 57t38.5 80t30 92.5t12 93.5q-15 -5 -24 -6t-20 -1q-27 0 -52.5 8t-45 24.5t-31.5 42t-12 61.5q0 31 11 59t31 49t48 33.5t63 12.5q46 0 80 -16.5t56.5 -46t34 -69t11.5 -84.5z"/>
<glyph glyph-name="hyphen" horiz-adv-x="964" unicode="-" d="M105 753h754v-214l-754 -7v221z"/>
<glyph glyph-name="period" horiz-adv-x="478" unicode="." d="M387 126q0 -33 -10.5 -62t-29 -50.5t-45.5 -34t-60 -12.5q-34 0 -62 12.5t-48 34t-31 50.5t-11 62t12 62.5t32.5 51.5t47.5 34.5t57 12.5q32 0 59 -12.5t47 -34.5t31 -51.5t11 -62.5z"/>
<glyph glyph-name="slash" horiz-adv-x="1432" unicode="/" d="M1381 1427l-1170 -1982l-159 105l1143 1997z"/>
<glyph glyph-name="zero" horiz-adv-x="1302" unicode="0" d="M89 711q0 86 16 175.5t47.5 173.5t79 158t111 129.5t143 87.5t174.5 32q99 0 178.5 -31.5t141 -86t105.5 -127.5t72.5 -155.5t42 -171.5t13.5 -174t-15 -174t-46 -172.5t-77.5 -158t-108.5 -130t-141 -87.5t-174 -32q-104 0 -186.5 31.5t-144.5 85.5t-106 126.5 t-72 155.5t-40.5 171.5t-12.5 173.5zM400 753q0 -71 3 -146.5t13 -146.5t28 -134.5t47 -111t71.5 -75t100.5 -27.5q73 0 119.5 46t73 123.5t36.5 180t10 215.5q0 83 -3.5 163t-13.5 151.5t-27 132.5t-44.5 105t-66.5 68.5t-92 24.5q-74 0 -123 -46t-78 -124t-41.5 -181.5 t-12.5 -217.5z"/>
<glyph glyph-name="one" horiz-adv-x="831" unicode="1" d="M85 1001l-72 123l468 343h124v-1131q0 -28 -0.5 -55t-1.5 -51.5t-2.5 -44.5t-3.5 -33l154 6v-158h-588v135q34 2 61.5 6.5t46 22t28.5 52.5t10 97v821z"/>
<glyph glyph-name="two" horiz-adv-x="1091" unicode="2" d="M477 1321q-55 0 -99 -25.5t-66 -60.5q22 -23 31 -53.5t9 -52.5q0 -19 -7.5 -42t-24 -42.5t-43.5 -33t-65 -13.5q-32 1 -56 13t-40.5 32t-25 47t-8.5 57q0 31 13 67t38.5 71.5t63.5 68t87.5 58t110.5 40.5t133 15q82 0 164.5 -20t148 -66t106.5 -119.5t41 -181.5 q0 -52 -18.5 -107.5t-68 -124t-137.5 -154.5t-227 -199q-57 -46 -98 -88.5t-69 -79.5t-43.5 -66.5t-19.5 -49.5l401 -11h16q31 0 57 5.5t44 20.5t28 40.5t10 66.5h130l-16 -333h-897q0 106 28 189.5t73 152t102.5 126t116.5 112.5q74 69 126 131t85 120t48 113t15 111 q0 49 -9 96.5t-31.5 85t-60.5 61t-96 23.5z"/>
<glyph glyph-name="three" horiz-adv-x="1146" unicode="3" d="M72 269q0 31 10.5 59t29 49.5t45 34t59.5 12.5q36 0 60.5 -13t39.5 -32.5t21.5 -42.5t6.5 -44q0 -19 -7.5 -45.5t-24.5 -48.5q10 -19 29 -34t44 -25.5t53.5 -16t57.5 -5.5q64 0 112.5 20.5t81 57t49 86t16.5 107.5q0 54 -14 107t-49 95.5t-93.5 69t-146.5 26.5 q-7 0 -21 -0.5t-30 -1.5t-31 -2t-24 -2v147q11 -2 19 -2h16h12q143 0 221 68.5t78 198.5q0 50 -10.5 92.5t-33.5 73t-59 47.5t-87 17q-28 0 -53.5 -7.5t-46.5 -19.5t-37 -27t-25 -31q19 -23 26 -52t7 -49q0 -19 -7.5 -41.5t-24 -42.5t-43 -33.5t-64.5 -13.5q-32 1 -56 13 t-40.5 32t-25 47t-8.5 57q0 45 26.5 100t80.5 102t134.5 79t188.5 32q95 0 178.5 -19t145 -62.5t97 -113t35.5 -169.5q0 -40 -16.5 -88.5t-53 -94t-95 -83t-143.5 -55.5v-2q98 -17 170 -54t119 -87.5t70 -111.5t23 -126q0 -105 -40.5 -186t-113.5 -136t-173.5 -83.5 t-220.5 -28.5q-116 0 -200 27t-138 70.5t-80 97t-26 107.5z"/>
<glyph glyph-name="four" horiz-adv-x="1121" unicode="4" d="M215 561h344v450zM852 370v-34q0 -28 -0.5 -55t-1.5 -51.5t-2.5 -44.5t-3.5 -33l154 6v-158h-585v135q34 2 61.5 6.5t46 22t28.5 52.5t10 97v57h-534v193l703 904h124v-911h200v-186h-200z"/>
<glyph glyph-name="five" horiz-adv-x="1106" unicode="5" d="M338 188q7 -17 25 -31t41 -24t48 -15.5t46 -5.5q61 0 104 26t70 67t39.5 93t12.5 105q0 31 -2 69t-10 77.5t-24 77t-43 66.5t-67.5 47t-98.5 18q-45 0 -109.5 -16.5t-136.5 -58.5l-88 67l-7 684h530q35 0 63.5 4.5t49 19t31.5 40.5t11 69h130l-16 -333l-643 -11v-365 q23 10 53.5 19t63.5 15.5t67 10.5t65 4q127 0 220.5 -37.5t155 -101t91.5 -147t30 -174.5q0 -119 -45 -209t-119 -150t-168.5 -90.5t-194.5 -30.5q-101 0 -179.5 25.5t-132.5 65.5t-82.5 90t-28.5 99q0 31 10 59t28.5 50t44.5 35t59 13q37 0 61.5 -13t39.5 -32.5t21.5 -42.5 t6.5 -44q0 -17 -5.5 -40.5t-17.5 -43.5z"/>
<glyph glyph-name="six" horiz-adv-x="1178" unicode="6" d="M1029 1192q0 -27 -8.5 -53.5t-25 -47t-41 -33t-55.5 -12.5q-38 0 -64 12.5t-42 32t-22.5 42t-6.5 43.5q0 17 6 43t23 46q-17 23 -49 40.5t-79 17.5q-52 0 -92 -23t-70 -62.5t-50.5 -92t-33.5 -111t-19.5 -119.5t-8.5 -117q18 21 48.5 41.5t69 37t80.5 26.5t82 10 q109 0 188 -35t130.5 -98t76 -150t24.5 -190q0 -97 -37.5 -183t-104.5 -150.5t-159.5 -102t-201.5 -37.5q-137 0 -231 48.5t-152.5 139t-84 218.5t-25.5 287q0 59 9.5 141.5t33 172.5t64 178t103 158t149 113.5t202.5 43.5q97 0 167.5 -25.5t116.5 -65.5t68 -89t22 -95z M596 750q-32 0 -63 -10.5t-58 -29t-48.5 -43t-34.5 -52.5q0 -48 4 -104t13.5 -112t25 -108t38.5 -92t54 -64t71 -24q54 0 89 23.5t55.5 62.5t29 89t8.5 103q0 31 -2 69.5t-8 78.5t-18 78.5t-32.5 68.5t-51 48t-72.5 18z"/>
<glyph glyph-name="seven" horiz-adv-x="960" unicode="7" d="M315 1231h-11q-33 0 -59.5 -7.5t-45 -24.5t-29 -45t-10.5 -69h-130l16 349h872v-186q-69 -142 -119 -274.5t-90.5 -267.5t-76.5 -278t-76 -306q-7 -29 -19.5 -56.5t-30.5 -49.5t-42 -35.5t-54 -13.5q-33 0 -55 10.5t-35.5 28t-19.5 39t-6 44.5q0 22 5.5 50t22.5 77 t47.5 125.5t80.5 195.5t123 288t173 401z"/>
<glyph glyph-name="eight" horiz-adv-x="1172" unicode="8" d="M423 1133q0 -40 18 -79.5t48.5 -75t71.5 -64.5t87 -47q35 26 63.5 58t49 66t31.5 67.5t11 62.5q0 49 -14.5 87t-39.5 63.5t-58.5 38.5t-72.5 13q-45 0 -81 -15.5t-61.5 -41.5t-39 -60.5t-13.5 -72.5zM792 309q0 38 -13 78.5t-44 81.5t-82 81.5t-127 78.5 q-44 -34 -74.5 -74.5t-50 -81.5t-28.5 -78.5t-9 -65.5q0 -47 17 -87t47 -69t70.5 -45.5t88.5 -16.5t86 15.5t64.5 42.5t40.5 63t14 77zM1025 1119q0 -53 -22 -102.5t-57 -92.5t-78.5 -78.5t-86.5 -60.5v-2q157 -97 231 -205t74 -226q0 -100 -42 -172.5t-112 -120t-161.5 -70 t-191.5 -22.5q-48 0 -101.5 8t-105 25t-98 44.5t-82 67t-56.5 92t-21 119.5q0 59 23 114.5t61 105t86.5 90t99.5 69.5v2q-68 43 -115 90.5t-76.5 96t-42.5 96t-13 89.5q0 100 43 173.5t110.5 122t149.5 72t161 23.5t155.5 -23t135.5 -67t95.5 -109t36.5 -149z"/>
<glyph glyph-name="nine" horiz-adv-x="1179" unicode="9" d="M148 236q0 27 9.5 54.5t26.5 49t42 35t57 13.5q38 0 63 -12.5t40 -32t21 -42t6 -43.5q0 -9 -1.5 -20.5t-5.5 -23.5t-9.5 -23.5t-12.5 -19.5q16 -23 48.5 -40.5t78.5 -17.5q73 0 125.5 39.5t86 105.5t49.5 152t16 178v24t-1 24q-18 -21 -48.5 -41.5t-67 -37t-78 -26.5 t-81.5 -10q-108 0 -188 35.5t-132.5 99.5t-78 151t-25.5 191q0 103 36 189t101 148t155.5 97t200.5 35q137 0 232.5 -52t155.5 -144.5t87 -219.5t27 -277q0 -76 -8.5 -165.5t-30.5 -179t-61.5 -173t-102 -148t-150.5 -103t-208 -38.5q-101 0 -172 23t-116 60.5t-65.5 86 t-20.5 99.5zM585 684q33 0 63.5 10.5t56.5 29t46.5 43t34.5 52.5q0 99 -9.5 190t-33 160.5t-63.5 111.5t-100 42q-47 0 -81 -23.5t-56.5 -62.5t-33.5 -89t-11 -103q0 -31 2 -69.5t8.5 -78.5t19 -78.5t33.5 -68.5t51 -48t73 -18z"/>
<glyph glyph-name="colon" horiz-adv-x="507" unicode=":" d="M402 951q0 -33 -10.5 -62t-29 -50.5t-45.5 -34t-60 -12.5q-34 0 -62 12.5t-48 34t-31 50.5t-11 62t12 62.5t32.5 51.5t47.5 34.5t57 12.5q32 0 59 -12.5t47 -34.5t31 -51.5t11 -62.5zM402 126q0 -33 -10.5 -62t-29 -50.5t-45.5 -34t-60 -12.5q-34 0 -62 12.5t-48 34 t-31 50.5t-11 62t12 62.5t32.5 51.5t47.5 34.5t57 12.5q32 0 59 -12.5t47 -34.5t31 -51.5t11 -62.5z"/>
<glyph glyph-name="semicolon" horiz-adv-x="546" unicode=";" d="M431 951q0 -33 -10.5 -62t-29 -50.5t-45.5 -34t-60 -12.5q-34 0 -62 12.5t-48 34t-31 50.5t-11 62t12 62.5t32.5 51.5t47.5 34.5t57 12.5q32 0 59 -12.5t47 -34.5t31 -51.5t11 -62.5zM438 65q0 -100 -45.5 -214.5t-142.5 -232.5l-79 57q16 21 36.5 57t38.5 80t30 92.5 t12 93.5q-15 -5 -24 -6t-20 -1q-27 0 -52.5 8t-45 24.5t-31.5 42t-12 61.5q0 31 11 59t31 49t48 33.5t63 12.5q46 0 80 -16.5t56.5 -46t34 -69t11.5 -84.5z"/>
<glyph glyph-name="less" horiz-adv-x="1128" unicode="&lt;" d="M79 733l922 409v-216l-637 -280v-2l637 -280v-218l-922 401v186z"/>
<glyph glyph-name="equal" horiz-adv-x="1181" unicode="=" d="M130 926l922 -3v-190l-922 -3v196zM130 546l922 -4v-189l-922 -4v197z"/>
<glyph glyph-name="greater" horiz-adv-x="1128" unicode="&gt;" d="M1049 555l-922 -409v216l637 280v2l-637 280v218l922 -401v-186z"/>
<glyph glyph-name="question" horiz-adv-x="1031" unicode="?" d="M638 1100q0 48 -8 89t-28 71t-53.5 47t-85.5 17q-25 0 -49 -6t-44.5 -15.5t-36.5 -21t-26 -23.5q21 -21 29.5 -51t8.5 -51q0 -20 -7.5 -44t-23.5 -45t-41.5 -35.5t-60.5 -14.5t-61 11t-43 30.5t-25 46.5t-8 58q0 55 32.5 109t89.5 97.5t135 70.5t170 27q121 0 204.5 -28 t134.5 -74t73.5 -104.5t22.5 -119.5q0 -72 -31.5 -133t-79 -113.5t-102.5 -97t-102.5 -83.5t-79 -73.5t-31.5 -67.5q0 -26 19.5 -43t61.5 -17q14 0 29.5 1.5t33.5 6.5l32 -105q-26 -14 -53.5 -22.5t-54 -13.5t-51 -7t-43.5 -2q-33 0 -65 7.5t-57 24.5t-40.5 44t-15.5 66 q0 25 6.5 48t25 51t51 64.5t84.5 87.5q36 36 66 71t51.5 74.5t34 85.5t12.5 105zM655 126q0 -33 -12.5 -62t-33.5 -50.5t-48 -34t-56 -12.5q-30 0 -56.5 12.5t-47 34t-32 50.5t-11.5 62t12 62.5t32.5 51.5t47.5 34.5t57 12.5q32 0 59 -12.5t47 -34.5t31 -51.5t11 -62.5z"/>
<glyph glyph-name="at" horiz-adv-x="1624" unicode="@" d="M1416 57q-121 -135 -271.5 -197.5t-319.5 -62.5q-121 0 -222 27.5t-181.5 76t-141.5 116.5t-101.5 148.5t-61 172t-20.5 187.5q0 87 22 178.5t65.5 178t107.5 163.5t148.5 134.5t189 91t227.5 33.5q110 0 203 -26.5t167.5 -73t131 -109.5t94 -137t56.5 -155.5t19 -164.5 q0 -84 -17.5 -153t-47.5 -124t-70 -95.5t-84 -67.5t-90 -40t-89 -13q-36 0 -73 9t-67 33.5t-48.5 68t-18.5 113.5q0 10 0.5 20t1.5 21q-28 -69 -60 -117.5t-66 -79t-69 -44t-68 -13.5q-43 0 -82.5 17t-69.5 53t-48 92t-18 135q0 100 30.5 196.5t90 173t147.5 123.5t203 47 q45 0 110.5 -10.5t134.5 -32.5q-6 -46 -13 -100t-14.5 -110t-14.5 -112t-12.5 -105.5t-8.5 -90.5t-3 -67q0 -23 3.5 -44.5t12.5 -38.5t23.5 -27.5t35.5 -10.5q40 0 71.5 19.5t54.5 51.5t39 73.5t26 85t14 86.5t4 79q0 140 -41 247.5t-112.5 181t-169 111t-210.5 37.5 q-88 0 -165.5 -26t-142.5 -72t-117 -110t-88 -139t-55 -159.5t-19 -172.5q0 -155 49 -274.5t133 -200.5t196.5 -123t238.5 -42q62 0 129 13.5t132 40t125 67t109 94.5zM717 297q26 0 52.5 27.5t51 73.5t46 105.5t38 125t27.5 131.5t14 124q-26 8 -59 8q-39 0 -71.5 -19 t-58.5 -51.5t-46.5 -76t-34.5 -93t-21 -102.5t-7 -104q0 -72 18.5 -110.5t50.5 -38.5z"/>
<glyph glyph-name="A" d="M451 573h341l-93 257q-27 75 -48 148.5t-31 130.5h-2q-8 -35 -25 -104t-50 -166zM844 428l-445 -8l-33 -96l-12.5 -35t-17 -44.5t-19 -46t-16.5 -40.5l146 6v-164h-439v141q43 0 72.5 19.5t51.5 51.5t39 74.5t34 88.5l400 1095h142l437 -1116q6 -15 14.5 -40t17.5 -53.5 t16 -57t10 -51.5l118 6v-158h-552v135q55 0 77 21.5t22 58.5q0 21 -6 46.5t-16 54.5z" unicode="A"/>
<glyph glyph-name="B" horiz-adv-x="1354" unicode="B" d="M651 807q65 1 109 23t71 59.5t38.5 86.5t11.5 106q0 62 -19.5 103t-50 65t-69.5 34t-78 10q-25 -1 -47 -6t-38 -22.5t-25.5 -51t-9.5 -92.5v-318zM536 145q54 0 103 0.5t97 2.5q62 3 107 23.5t74 55.5t43 82.5t14 104.5q0 70 -22.5 117.5t-60 76.5t-85 41t-96.5 12 q-97 0 -166 -2v-333q0 -28 -0.5 -54.5t-1.5 -50.5t-2.5 -43.5t-3.5 -32.5zM102 135q34 2 61.5 6.5t46 22t28.5 52.5t10 97v785q0 28 0.5 55t1.5 51.5t2.5 44.5t3.5 33l-154 -6v158l568 4q119 0 215.5 -21.5t165 -65t105.5 -109.5t37 -156q0 -52 -17 -96t-52.5 -85t-91 -74.5 t-132.5 -54.5v-2q102 -16 176.5 -51.5t123.5 -84t73 -108t24 -123.5q0 -100 -37.5 -176t-104 -127.5t-157.5 -77.5t-199 -26h-697v135z"/>
<glyph glyph-name="C" horiz-adv-x="1410" unicode="C" d="M394 738q0 -133 28.5 -244t83 -191.5t134.5 -125t184 -44.5q64 0 129 17t126 49.5t115.5 79.5t97.5 106l98 -90q-75 -104 -157 -168t-163 -99.5t-157 -48t-139 -12.5q-159 0 -288.5 56.5t-221.5 155t-142 231.5t-50 286q0 93 20 186.5t59.5 179t99.5 159.5t139.5 129 t179 86t218.5 31q40 0 84.5 -6.5t90.5 -19.5t91 -31.5t86 -43.5h2l-7 87h158v-479h-134q-28 171 -113 257.5t-231 86.5q-107 0 -186.5 -49t-131.5 -130t-77.5 -185.5t-25.5 -215.5z"/>
<glyph glyph-name="D" horiz-adv-x="1555" unicode="D" d="M695 1299h-12q-30 0 -56.5 -4.5t-45 -22.5t-28 -53t-9.5 -94v-789q0 -28 -0.5 -55t-1.5 -51.5t-2.5 -44.5t-3.5 -33q15 1 40.5 1t54 -1t56 -1.5t45.5 -0.5q112 0 192.5 45.5t132.5 121t77 172.5t25 199q0 157 -32.5 271t-93 188.5t-146.5 111.5t-192 40zM102 1434l597 2 q135 0 245.5 -28t197.5 -78t151 -118t106 -146.5t62.5 -164t20.5 -170.5q0 -83 -19 -169.5t-59.5 -168t-103.5 -153t-151 -125t-202.5 -84.5t-257.5 -31h-587v135q34 2 61.5 7t46 22t28.5 52t10 97v785q0 28 0.5 55t1.5 51.5t2.5 44.5t3.5 33l-154 -6v158z"/>
<glyph glyph-name="E" horiz-adv-x="1278" unicode="E" d="M544 672v-336q0 -28 -0.5 -54.5t-1.5 -50.5t-2.5 -43.5t-3.5 -32.5l275 1q45 0 90 15t80 49.5t57 91t22 139.5h135l-12 -451h-1081v135q34 2 61.5 7t46 22t28.5 52t10 97v785q0 28 0.5 55t1.5 51.5t2.5 44.5t3.5 33l-154 -6v158h1025l12 -397h-135q0 83 -23.5 135 t-59.5 81t-80 39q-40 9 -78 9h-8l-74 -2q-32 -1 -57.5 -6.5t-43 -23.5t-27 -53t-9.5 -95v-307h241l-9 177h158v-498h-135q0 64 -16 101t-43 55q-28 17 -64 21q-28 3 -60 3h-18z"/>
<glyph glyph-name="F" horiz-adv-x="1169" unicode="F" d="M544 622v-286q0 -28 -0.5 -55t-1.5 -51.5t-2.5 -44.5t-3.5 -33l182 6v-158h-616v135q34 2 61.5 7t46 22t28.5 52t10 97v785q0 28 0.5 55t1.5 51.5t2.5 44.5t3.5 33l-154 -6v158h1025l12 -397h-135q0 83 -23.5 135t-59.5 81t-78 38.5t-80 9.5h-8l-74 -2q-32 -1 -57.5 -6.5 t-43 -23.5t-27 -53t-9.5 -95v-357h212l-9 177h158v-498h-135q0 64 -16 101t-43 55t-59.5 21t-64.5 3h-18z"/>
<glyph glyph-name="G" horiz-adv-x="1545" unicode="G" d="M1373 69h-50q-59 0 -117.5 -16t-123.5 -35t-141 -35t-170 -16q-167 0 -297 56.5t-219 155t-135.5 231.5t-46.5 286q0 93 19.5 186.5t59 179t98.5 159.5t138.5 129t178.5 86t218 31q40 0 90.5 -6.5t103 -19.5t103 -31.5t91.5 -43.5h2l-7 87h158v-479h-134 q-14 86 -48 150.5t-84 107.5t-113 64.5t-135 21.5q-107 0 -186 -49t-130.5 -130t-76.5 -185.5t-25 -215.5q0 -133 27.5 -244.5t81.5 -192.5t133.5 -126t184.5 -45q30 0 68 3.5t78 10t77.5 17t66.5 24.5v190q0 28 0.5 55t1.5 51.5t2.5 44.5t3.5 33l-154 -6v158h544v-135 q-35 -2 -60.5 -8t-42 -24.5t-25 -53t-8.5 -92.5v-329z"/>
<glyph glyph-name="H" horiz-adv-x="1652" unicode="H" d="M1404 336q0 -28 -0.5 -55t-1.5 -51.5t-2.5 -44.5t-3.5 -33l154 6v-158h-588v135q34 2 61.5 6.5t46 22t28.5 52.5t10 97v332l-564 -7v-302q0 -28 -0.5 -55t-1.5 -51.5t-2.5 -44.5t-3.5 -33l154 6v-158h-588v135q34 2 61.5 6.5t46 22t28.5 52.5t10 97v785q0 28 0.5 55 t1.5 51.5t2.5 44.5t3.5 33l-154 -6v158h588v-135q-35 -2 -62 -7t-45.5 -22t-28.5 -52t-10 -97v-321h564v298q0 28 0.5 55t1.5 51.5t2.5 44.5t3.5 33l-154 -6v158h588v-135q-35 -2 -62 -7t-45.5 -22t-28.5 -52t-10 -97v-785z"/>
<glyph glyph-name="I" horiz-adv-x="792" unicode="I" d="M544 336q0 -28 -0.5 -55t-1.5 -51.5t-2.5 -44.5t-3.5 -33l154 6v-158h-588v135q34 2 61.5 6.5t46 22t28.5 52.5t10 97v785q0 28 0.5 55t1.5 51.5t2.5 44.5t3.5 33l-154 -6v158h588v-135q-35 -2 -62 -7t-45.5 -22t-28.5 -52t-10 -97v-785z"/>
<glyph glyph-name="J" horiz-adv-x="924" unicode="J" d="M722 521q0 -148 -28 -253t-82 -172t-134 -98t-183 -31q-60 0 -113.5 16.5t-93.5 45.5t-63 69t-23 88q0 34 9.5 65t29 54.5t47.5 37.5t66 14q36 0 61.5 -12t42.5 -31.5t25 -44.5t8 -50q0 -17 -5 -35.5t-13 -35.5q4 -10 12.5 -16.5t17.5 -10.5t18 -5.5t14 -1.5 q44 0 67.5 38t23.5 125v821q0 28 0.5 55t1.5 51.5t2.5 44.5t3.5 33l-154 -6v158h588v-135q-35 -2 -62 -7t-45.5 -22t-28.5 -52t-10 -97v-600z"/>
<glyph glyph-name="K" horiz-adv-x="1459" unicode="K" d="M544 809h149l156 268q18 31 37 63t38 60t35.5 49.5t30.5 32.5v2l-130 -8v158h501v-135q-35 -2 -72.5 -9.5t-78 -29t-82.5 -62.5t-84 -109l-196 -314v-3q42 -25 73 -54.5t55 -63.5l211 -297q31 -44 64 -83.5t67 -69.5t68.5 -48.5t69.5 -20.5v-135h-316q-13 1 -38 22.5 t-54 52.5t-58 67t-50 66l-202 295q-14 19 -29 40t-31 40.5t-31 36t-29 26.5l-74 -1v-309q0 -28 -0.5 -55t-1.5 -51.5t-2.5 -44.5t-3.5 -33l154 6v-158h-588v135q34 2 61.5 6.5t46 22t28.5 52.5t10 97v785q0 28 0.5 55t1.5 51.5t2.5 44.5t3.5 33l-154 -6v158h588v-135 q-35 -2 -62 -7t-45.5 -22t-28.5 -52t-10 -97v-312z"/>
<glyph glyph-name="L" horiz-adv-x="1238" unicode="L" d="M102 0v135q34 2 61.5 6.5t46 22t28.5 52.5t10 97v785q0 28 0.5 55t1.5 51.5t2.5 44.5t3.5 33l-154 -6v158h588v-135q-35 -2 -62 -7t-45.5 -22t-28.5 -52t-10 -97v-785q0 -28 -0.5 -54.5t-1.5 -50.5t-2.5 -43.5t-3.5 -32.5l275 1q121 0 190 83.5t69 251.5h136l-12 -491 h-1092z"/>
<glyph glyph-name="M" horiz-adv-x="1990" unicode="M" d="M1445 1102l-419 -1122h-191l-275 674q-12 28 -30.5 76.5t-38.5 109.5t-39.5 131.5t-35.5 144.5h-2q3 -115 4.5 -199t1.5 -148v-63l-3 -370q0 -28 -0.5 -55t-2 -51.5t-3 -44.5t-3.5 -33l155 6v-158h-467v135q34 2 61 7t45.5 22t28.5 52t11 97l12 785q0 28 1 55t2 51.5 t2.5 44.5t3.5 33l-155 -6v158h453l310 -793q14 -36 30.5 -81t32.5 -90t29.5 -85.5t21.5 -66.5h2q26 71 48.5 137.5t48.5 132.5l316 846h473v-135q-35 -2 -62.5 -7t-47 -22t-28 -49t-8.5 -79v-21l31 -785q1 -28 0.5 -55t-1.5 -51.5t-3 -44.5t-4 -33l154 6v-158h-569v135 q34 2 62 7t47.5 22t28 49t8.5 79v21l-17 434q-1 18 -3 58.5t-4.5 90.5t-5 104.5t-4.5 101.5h-2z"/>
<glyph glyph-name="N" horiz-adv-x="1583" unicode="N" d="M1365 -20h-174l-655 837q-52 67 -112 153h-2l3 -634q0 -28 -0.5 -55t-1.5 -51.5t-2.5 -44.5t-3.5 -33l154 6v-158h-467v135q34 2 61.5 6.5t46 22t28.5 52.5t10 97l-5 785q0 28 0.5 55t1.5 51.5t2.5 44.5t3.5 33l-154 -6v158h321l626 -790q52 -66 85.5 -113.5t57.5 -82.5 h2v650q0 28 0.5 55t1.5 51.5t2.5 44.5t3.5 33l-154 -6v158h466v-135q-35 -2 -62 -7t-45.5 -22t-28.5 -52t-10 -97v-1141z"/>
<glyph glyph-name="O" horiz-adv-x="1574" unicode="O" d="M72 717q0 86 19.5 175t59 172t99 156.5t139.5 128.5t180.5 86.5t221.5 31.5q124 0 225.5 -32t180.5 -87t136.5 -128.5t95.5 -156.5t56 -172t18 -174t-19.5 -173.5t-59 -171.5t-99 -157t-139.5 -129t-180 -87t-221 -32q-130 0 -233 31t-182.5 84.5t-136 126t-92 156 t-52.5 173.5t-17 179zM394 741q0 -65 9 -136t29 -140.5t52 -132.5t77.5 -110.5t106.5 -76t138 -28.5q71 0 126 24.5t96.5 66.5t70.5 98t47 118.5t26 129t8 128.5q0 138 -24 254.5t-74 201t-126 132t-180 47.5q-73 0 -129.5 -24.5t-99 -67.5t-71.5 -99.5t-47.5 -120.5 t-26.5 -131.5t-8 -132.5z"/>
<glyph glyph-name="P" horiz-adv-x="1308" unicode="P" d="M636 665q84 0 145 21.5t100 63.5t57.5 103t18.5 139q0 68 -13 117t-35 82.5t-50.5 54t-59 31t-61 14t-56.5 3.5q-33 0 -58.5 -5t-43 -22t-27 -49t-9.5 -86v-461q22 -2 45 -4t47 -2zM693 519q-24 -1 -43.5 -1.5t-37 -0.5h-34t-34.5 1v-181q0 -56 -2 -107.5t-6 -77.5l174 6 v-158h-608v135q34 2 61.5 6.5t46 22t28.5 52.5t10 97v785q0 28 0.5 55t1.5 51.5t2.5 44.5t3.5 33l-154 -6v158l583 4h10q127 0 233.5 -25.5t183.5 -80t119 -139.5t42 -204q1 -86 -34 -167.5t-106.5 -147.5t-180.5 -108t-259 -47z"/>
<glyph glyph-name="Q" horiz-adv-x="1576" unicode="Q" d="M395 741q0 -65 9 -136t29 -140.5t52 -132.5t77.5 -110.5t106.5 -76t138 -28.5q71 0 126 24.5t96.5 66.5t70.5 98t47 118.5t26 129t8 128.5q0 138 -24 254.5t-74 201t-126 132t-180 47.5q-73 0 -129.5 -24.5t-99 -67.5t-71.5 -99.5t-47.5 -120.5t-26.5 -131.5t-8 -132.5z M73 717q0 86 19.5 175t59 172t99 156.5t139.5 128.5t180.5 86.5t221.5 31.5q124 0 225.5 -32t180.5 -87t136.5 -128.5t95.5 -156.5t56 -172t18 -174q0 -102 -29 -208.5t-86.5 -202t-144.5 -173t-202 -120.5v-2q44 0 80.5 -4t70.5 -16t68.5 -35t75.5 -60q70 -66 112.5 -106.5 t70 -62t50 -29t56.5 -7.5v-137h-88q-71 0 -118.5 3t-85 14t-72 33.5t-77.5 60.5q-65 57 -115 111.5t-96.5 97t-95.5 68t-112 25.5q-126 0 -226.5 31t-177.5 85t-131.5 127t-89.5 156t-51.5 173t-16.5 178z"/>
<glyph glyph-name="R" horiz-adv-x="1404" unicode="R" d="M644 705q85 0 145 18.5t98 57t56 96.5t18 136q0 66 -15 112.5t-39 77.5t-54.5 49t-61.5 27.5t-59.5 12t-49.5 2.5q-33 0 -58.5 -5t-43 -22t-27 -49t-9.5 -86v-420q24 -3 49 -5t51 -2zM1147 327q34 -51 61 -87t52.5 -59t53 -34t62.5 -12v-135h-337q-36 26 -73 76t-78 117 l-150 245q-26 42 -47 70t-39 50q-17 -1 -30 -1h-26h-24.5t-27.5 1v-221q0 -56 -2 -107.5t-6 -77.5l174 6v-158h-608v135q34 2 61.5 6.5t46 22t28.5 52.5t10 97v785q0 28 0.5 55t1.5 51.5t2.5 44.5t3.5 33l-154 -6v158l583 4q133 0 240.5 -22t184.5 -72.5t118 -131.5t41 -199 v-6q0 -65 -21.5 -127t-66 -115t-112 -95t-159.5 -68v-2q38 -15 76 -51t65 -77z"/>
<glyph glyph-name="S" horiz-adv-x="1225" unicode="S" d="M634 115q55 0 100.5 15t78 41.5t50.5 61.5t18 75q0 54 -29.5 93t-77 68.5t-106 53t-116.5 46.5q-99 40 -184 86t-147 106t-97 137t-35 178q0 42 10.5 87.5t33 89t59.5 82.5t90.5 68.5t124 46.5t161.5 17q40 0 86 -6.5t92 -18.5t88.5 -30.5t76.5 -42.5h2l-7 84h158v-479 h-134q-28 175 -119.5 260t-235.5 85q-44 0 -83.5 -13t-70 -36.5t-48.5 -56t-18 -70.5q0 -48 20 -86t61 -71t103 -64t147 -65q51 -21 106 -46t107 -55.5t98.5 -68t81 -83.5t55 -101.5t20.5 -122.5q0 -91 -37.5 -167t-106.5 -130.5t-166 -85t-216 -30.5q-40 0 -85 6.5t-91 19 t-91.5 31.5t-86.5 44h-2l7 -87h-158v479h134q14 -86 48 -150.5t83.5 -108t112.5 -65t135 -21.5z"/>
<glyph glyph-name="T" horiz-adv-x="1331" unicode="T" d="M1285 1434l12 -464h-135q0 163 -66.5 245t-183.5 82h-3l-98 -1v-960q0 -28 -0.5 -55t-1.5 -51.5t-2.5 -44.5t-3.5 -33l164 6v-158h-598v135q34 1 61.5 6.5t46 22.5t28.5 52t10 97v981h-95q-117 0 -184.5 -79t-68.5 -245h-135l12 464h1241z"/>
<glyph glyph-name="U" horiz-adv-x="1556" unicode="U" d="M1361 608q0 -177 -43.5 -299t-120 -198t-181 -110t-227.5 -34q-116 0 -204.5 22.5t-154 64t-110 99.5t-71.5 128.5t-38.5 151.5t-11.5 169v496q0 28 0.5 55t1.5 51.5t2.5 44.5t3.5 33l-154 -6v158h589v-135q-35 -2 -62 -7t-45.5 -22t-28.5 -52t-10 -97v-563 q0 -134 29.5 -218.5t77.5 -132.5t109.5 -66t125.5 -18q80 0 143.5 27t107.5 81.5t67 137t23 192.5v537q0 28 0.5 55t1.5 51.5t2.5 44.5t3.5 33l-154 -6v158h474v-135q-35 -2 -62 -7t-45.5 -22t-28.5 -52t-10 -97v-513z"/>
<glyph glyph-name="V" horiz-adv-x="1449" unicode="V" d="M690 677q18 -42 32.5 -78.5t27.5 -70.5t26.5 -68.5t29.5 -73.5h2q23 61 48 136t51 145l155 429q6 17 15 42t20 52t23.5 51.5t25.5 40.5v2l-157 -8v158h461v-135q-34 -2 -64 -14t-56.5 -38t-50.5 -67t-46 -100l-409 -1092h-168l-472 1099q-11 25 -21.5 52.5t-18.5 54 t-13 49.5t-5 39l-109 -6v158h603v-135h-11q-55 0 -89.5 -20t-34.5 -67q0 -30 16 -71z"/>
<glyph glyph-name="W" horiz-adv-x="2080" unicode="W" d="M1195 1434l232 -755q22 -72 39.5 -144.5t34.5 -150.5h2q18 69 38 138.5t40 144.5l114 429q14 49 34 100.5t50 85.5v2l-157 -8v158h461v-135q-34 -2 -65 -14t-58.5 -37.5t-51 -66.5t-42.5 -101l-335 -1092h-181l-243 733q-27 81 -43.5 156.5t-30.5 145.5h-2 q-11 -70 -25.5 -134t-35.5 -133l-233 -768h-178l-365 1103q-11 25 -21.5 52t-18.5 52.5t-13 47.5t-5 39l-109 -6v158h603v-135h-12q-56 0 -87.5 -19.5t-31.5 -69.5q-1 -14 2 -30t8 -35l123 -468q9 -35 17.5 -66t17 -64.5t17 -72t17.5 -87.5h2q5 18 14 52.5t20.5 76t24 86.5 t24 85.5t20.5 72t14 46.5l190 628h185z"/>
<glyph glyph-name="X" horiz-adv-x="1432" unicode="X" d="M652 1299q-66 0 -96.5 -15t-30.5 -45q0 -17 10.5 -37t27.5 -43l180 -232h2l156 216q21 29 37.5 50t30.5 36.5t26.5 28t25.5 24.5v2l-153 -8v158h466v-135q-36 -5 -70.5 -21t-70 -44t-72 -69.5t-77.5 -97.5l-197 -269l386 -491q35 -45 62.5 -83t44.5 -72l83 6v-158h-612 v135q63 0 88.5 13.5t25.5 36.5q0 18 -13 41t-33 49l-208 264h-2l-179 -248q-21 -29 -37 -50t-28.5 -37t-24 -28t-23.5 -24v-2l146 8v-158h-451v135q58 13 118 65.5t136 153.5l238 318l-330 417q-35 45 -61.5 96.5t-41.5 96.5l-103 -6v158h624v-135z"/>
<glyph glyph-name="Y" horiz-adv-x="1365" unicode="Y" d="M858 568v-232q0 -28 -0.5 -55t-1.5 -51.5t-2.5 -44.5t-3.5 -33l164 6v-158h-598v135q34 1 61.5 6.5t46 22.5t28.5 52t10 97v179l-378 595q-15 24 -29 51t-25 53.5t-17.5 50t-6.5 40.5l-99 -6v158h603v-135q-6 0 -11.5 0.5t-11.5 0.5q-57 0 -90 -20.5t-33 -60.5 q1 -17 6 -36.5t19 -41.5l157 -257l21 -36t29.5 -52.5t30 -57.5t22.5 -51h3q10 23 34 72.5t62 127.5l106 209q8 16 21 41t28 52t30 52t29 41v2l-157 -8v158h452v-135q-36 -6 -65.5 -20t-56.5 -39.5t-53.5 -64.5t-56.5 -95z"/>
<glyph glyph-name="Z" horiz-adv-x="1237" unicode="Z" d="M557 388q-44 -66 -87 -127t-89 -115v-2l374 -8q57 0 104.5 16t82 51.5t53.5 93t19 141.5h135l-12 -438h-1055v154l613 934q38 58 71.5 105.5t71.5 95.5v2l-351 9q-57 0 -104.5 -15.5t-82 -51.5t-53.5 -94t-19 -142h-135l12 437h1042v-154z"/>
<glyph glyph-name="bracketleft" horiz-adv-x="791" unicode="[" d="M129 1546h655v-145l-390 -6l-9 -1766l403 -6v-145h-661z"/>
<glyph glyph-name="backslash" horiz-adv-x="1432" unicode="\" d="M51 1427l186 120l1143 -1997l-159 -105z"/>
<glyph glyph-name="bracketright" horiz-adv-x="791" unicode="]" d="M662 -522h-655v145l390 6l9 1766l-403 6v145h661z"/>
<glyph glyph-name="asciicircum" horiz-adv-x="1686" unicode="^" d="M936 1467l627 -573h-281l-445 422h-2l-444 -412h-268l631 563h182z"/>
<glyph glyph-name="underscore" horiz-adv-x="1704" unicode="_" d="M221 -102l1259 -9v-206h-1259v215z"/>
<glyph glyph-name="grave" horiz-adv-x="578" unicode="`" d="M145 1374q-24 23 -39 54.5t-15 63.5q0 20 8 40t22 35.5t34 25t43 9.5q35 0 68 -20.5t54 -54.5l168 -286l-94 -83z"/>
<glyph glyph-name="a" horiz-adv-x="1074" unicode="a" d="M106 787q0 60 33.5 110t92 85.5t137.5 55t169 19.5t160.5 -23t119 -71t74 -122t25.5 -176q0 -52 -0.5 -91.5t-0.5 -76t-0.5 -76.5t-0.5 -92q0 -15 -0.5 -36t-1 -45t-2 -49.5t-3.5 -48.5l132 6v-156h-387q-4 29 -5.5 48.5t-2.5 45.5h-2q-70 -70 -146 -98.5t-157 -28.5 q-66 0 -118 20.5t-87.5 57.5t-54.5 86.5t-19 108.5q0 65 23 117t63.5 93t95.5 71t118.5 50t132.5 31t138 14v107q0 41 -7 75.5t-24 59.5t-45 39q-26 13 -64 13h-6q-42 -2 -78 -17t-62 -42q16 -17 20.5 -39t4.5 -37q0 -22 -8 -44.5t-25 -41t-43 -30.5t-62 -12q-30 1 -54 12.5 t-40 30t-24.5 43.5t-8.5 54zM631 471q-58 -6 -109 -21t-88.5 -39.5t-59 -58.5t-21.5 -78q1 -29 11 -49t25.5 -33t36 -19t42.5 -6q48 0 89 20t73 55z"/>
<glyph glyph-name="b" horiz-adv-x="1173" unicode="b" d="M583 872q-51 -2 -94.5 -25.5t-70.5 -61.5v-478q0 -54 14 -90.5t36.5 -58.5t50.5 -31.5t56 -9.5q67 0 111.5 33t71.5 87.5t38 124.5t11 145q0 72 -13 138t-40 116.5t-69.5 80.5t-101.5 30zM128 1157q0 37 1.5 85t6.5 94l-144 -6v155q71 0 125.5 6t93 15t62 19.5t34.5 20.5 h111v-599q69 62 140.5 86t135.5 24q92 0 168 -36.5t130.5 -104t84.5 -163.5t30 -215q0 -124 -34 -228.5t-98.5 -180.5t-156.5 -119t-208 -43q-28 0 -64 4.5t-76 18t-80.5 38t-76.5 63.5h-2l-59 -91h-124v1157z"/>
<glyph glyph-name="c" horiz-adv-x="1060" unicode="c" d="M713 756q0 18 6 43.5t19 45.5q-11 20 -28.5 33t-37 21t-39 11t-34.5 3q-52 0 -95 -23.5t-74.5 -70t-49 -114.5t-17.5 -157q0 -78 14.5 -150t47.5 -127t87 -88t133 -33q41 0 82.5 11.5t79.5 32t72.5 49.5t61.5 64l94 -91q-56 -77 -115 -125.5t-119 -76t-119 -37.5 t-115 -10q-104 0 -195.5 35t-160 102t-108.5 164t-40 222q0 115 39 218.5t109 180.5t168 122.5t217 45.5q97 0 171 -24t123.5 -63t74.5 -89.5t25 -104.5q0 -31 -9.5 -59t-28 -49t-45.5 -33t-61 -12q-38 0 -63 13t-41 32.5t-22.5 43t-6.5 44.5z"/>
<glyph glyph-name="d" horiz-adv-x="1221" unicode="d" d="M586 154q52 0 97 27t72 70v616q-22 15 -61 26.5t-84 11.5q-71 -2 -118 -35.5t-75 -88t-39.5 -123.5t-11.5 -141q0 -66 12 -131t38.5 -116.5t68.5 -83.5t101 -32zM1045 1546v-1217q0 -15 -0.5 -36t-1.5 -45t-2.5 -49.5t-3.5 -48.5l133 6v-156h-389l-11 95h-2 q-68 -71 -140.5 -99.5t-148.5 -28.5q-92 0 -168 36.5t-130.5 104t-84.5 163.5t-30 215q0 124 36.5 228.5t103 180.5t160 119t207.5 43q57 0 100.5 -11.5t81.5 -25.5v136q0 15 0.5 36t1.5 45t2.5 49.5t3.5 48.5l-144 -6v156q71 0 125.5 6t93 15t62 19.5t34.5 20.5h111z"/>
<glyph glyph-name="e" horiz-adv-x="1102" unicode="e" d="M1037 551l-673 -12q0 -84 15.5 -155.5t49.5 -123t89 -81t135 -29.5q31 0 69 8t77.5 26t79.5 47.5t75 72.5l92 -87q-55 -79 -117 -128t-124.5 -76t-123 -36.5t-112.5 -9.5q-113 0 -206 38t-160 109t-103.5 171t-36.5 225q0 108 36.5 206.5t103.5 174.5t161.5 121t210.5 45 q57 0 113.5 -10t108 -33.5t96 -61.5t76.5 -94q33 -56 51 -132q18 -72 17 -165v-10zM585 913q-45 0 -80.5 -17t-61.5 -47t-42.5 -72.5t-23.5 -93.5h377q-2 63 -15 107t-35.5 71.5t-52.5 39.5t-66 12z"/>
<glyph glyph-name="f" horiz-adv-x="755" unicode="f" d="M497 861l3 -528q0 -15 -0.5 -36.5t-1.5 -46.5t-2.5 -51t-3.5 -49l143 6v-156h-547v133q43 0 67.5 13t36.5 37t15 57.5t3 74.5v541l-148 -3v171h148v60q0 124 28 211.5t80.5 143t127 81.5t166.5 26q72 0 122 -16t81 -42t44.5 -58t13.5 -64q0 -28 -8.5 -53t-25.5 -44 t-42 -30t-58 -11q-57 0 -88.5 33t-31.5 85q0 17 5 40q-10 11 -24 14t-22 3q-26 -1 -42 -13t-25 -30t-12.5 -40t-3.5 -44l1 -252h229v-158z"/>
<glyph glyph-name="g" horiz-adv-x="1140" unicode="g" d="M1074 985q-15 0 -31.5 6.5t-30.5 17t-24 25t-13 30.5q-14 -3 -28 -18t-25.5 -35t-20 -41.5t-11.5 -37.5q60 -51 91 -118.5t31 -145.5q0 -89 -39 -163.5t-103.5 -128.5t-148.5 -84t-174 -30q-28 0 -60.5 3.5t-63.5 3.5q-45 0 -75.5 -16.5t-30.5 -45.5q0 -19 14 -32t45 -21 t81 -13.5t122 -9.5q118 -7 214.5 -25.5t165.5 -55.5t107 -96.5t38 -148.5q0 -58 -24 -107.5t-65.5 -89.5t-98 -70.5t-120.5 -51t-133.5 -31t-137.5 -10.5q-133 0 -222.5 22.5t-144 60t-77.5 85.5t-23 100q0 32 9.5 65t32 63.5t59.5 58t93 48.5q-42 12 -71 31t-47 42.5 t-26 51t-8 56.5q0 26 10 57t33.5 62t61.5 57.5t95 43.5v2q-45 17 -82 45t-63.5 66t-41.5 85t-15 102q0 90 38.5 165t102.5 129t146 84t169 30q27 0 59 -3.5t65 -11t64 -19.5t57 -30q17 47 41 91.5t56.5 79.5t73 56t89.5 21q69 0 105.5 -36t36.5 -96q0 -19 -6 -40.5 t-20.5 -40t-39 -31t-61.5 -12.5zM553 919q-41 0 -72.5 -20t-54 -53.5t-34 -77.5t-11.5 -91q0 -54 11.5 -104t33.5 -88.5t55 -61.5t75 -23q41 0 72.5 20t53 53t32.5 74.5t11 83.5q0 54 -10.5 105.5t-32 92t-54 65.5t-75.5 25zM583 -114q-23 1 -50 2t-54.5 3t-54.5 4.5 t-49 6.5q-34 -26 -50 -66t-16 -76q0 -40 19 -72t55 -54.5t86.5 -34.5t113.5 -12q72 0 127.5 15t93 38.5t56.5 52.5t19 58q0 63 -72 95.5t-224 39.5z"/>
<glyph glyph-name="h" horiz-adv-x="1271" unicode="h" d="M1107 329q0 -15 -0.5 -36t-1.5 -45t-2.5 -49.5t-3.5 -48.5l133 6v-156h-537v133q43 0 67.5 13t36.5 37t15 57.5t3 74.5l-1 292q-1 135 -41 198t-125 63q-53 -1 -102.5 -22.5t-84.5 -52.5v-464q0 -15 -0.5 -36t-1.5 -45t-2.5 -49.5t-3.5 -48.5l133 6v-156h-537v133 q43 0 67.5 13t36.5 37t15 57.5t3 74.5v842q0 37 1.5 85t6.5 94l-144 -6v155q71 0 125.5 6t93 15t62 19.5t34.5 20.5h111v-603q30 24 68.5 44.5t79 36t80 24.5t70.5 9q94 0 159.5 -26.5t107 -81.5t60.5 -141t19 -204v-275z"/>
<glyph glyph-name="i" horiz-adv-x="670" unicode="i" d="M525 1393q0 -35 -11 -65t-30.5 -53t-48 -36t-62.5 -13q-35 0 -64.5 13t-50.5 36t-32.5 53t-11.5 65t12.5 66t34 54t49.5 36t60 13q33 0 61.5 -13t49.5 -36t32.5 -54t11.5 -66zM495 329q0 -15 -0.5 -36t-1.5 -45t-2.5 -49.5t-3.5 -48.5l133 6v-156h-537v133q43 0 67.5 13 t36.5 37t15 57.5t3 74.5v340q0 37 1.5 85t6.5 94l-144 -6v155q71 0 125.5 6t93 15t62 19.5t34.5 20.5h111v-715z"/>
<glyph glyph-name="j" horiz-adv-x="603" unicode="j" d="M494 1393q0 -35 -11 -65t-30.5 -53t-48 -36t-62.5 -13q-35 0 -64.5 13t-50.5 36t-32.5 53t-11.5 65t12.5 66t34 54t49.5 36t60 13q33 0 61.5 -13t49.5 -36t32.5 -54t11.5 -66zM185 655q0 37 1.5 85t6.5 94l-144 -6v155q71 0 125.5 6t93 15t62 19.5t34.5 20.5h111v-1040 q0 -142 -33 -247t-91 -174.5t-137 -103.5t-171 -34q-57 0 -99 14.5t-69.5 38t-41 53.5t-13.5 62q0 28 9 53t26 44.5t42 31t57 11.5q54 0 86 -34t32 -88q0 -16 -3 -34q5 -4 16.5 -6.5t19.5 -2.5q28 0 45 15.5t26 39t11.5 50t2.5 48.5z"/>
<glyph glyph-name="k" horiz-adv-x="1216" unicode="k" d="M464 329q0 -15 -0.5 -36t-1.5 -45t-2.5 -49.5t-3.5 -48.5l133 6v-156h-537v133q43 0 67.5 13t36.5 37t15 57.5t3 74.5v842q0 37 1.5 85t6.5 94l-144 -6v155q71 0 125.5 6t93 15t62 19.5t34.5 20.5h111v-934h100l146 170q26 30 43.5 49.5t36.5 36.5v2l-109 -2v156h462 v-131q-54 -6 -98.5 -23t-80 -39.5t-63.5 -48.5t-50 -50l-131 -146v-2q16 -8 30.5 -18.5t30 -25t33.5 -35t40 -49.5l137 -179q12 -16 31 -40.5t43 -47.5t53 -39.5t61 -16.5v-133h-235q-33 0 -60.5 12t-54 34.5t-54 56t-59.5 76.5q-27 36 -57 78t-57.5 82t-51.5 74.5t-39 55.5 l-47 -2v-138z"/>
<glyph glyph-name="l" horiz-adv-x="639" unicode="l" d="M463 329q0 -15 -0.5 -36t-1.5 -45t-2.5 -49.5t-3.5 -48.5l133 6v-156h-537v133q43 0 67.5 13t36.5 37t15 57.5t3 74.5v842q0 37 1.5 85t6.5 94l-144 -6v155q71 0 125.5 6t93 15t62 19.5t34.5 20.5h111v-1217z"/>
<glyph glyph-name="m" horiz-adv-x="1885" unicode="m" d="M1109 329q0 -15 -0.5 -36t-1.5 -45t-2.5 -49.5t-3.5 -48.5l133 6v-156h-527v133q39 0 61.5 13t33.5 37t14 57.5t3 74.5l-1 320q0 67 -11 112t-30.5 72t-47 38t-62.5 11q-49 0 -93 -22.5t-77 -52.5v-464q0 -15 -0.5 -36t-1.5 -45t-2.5 -49.5t-3.5 -48.5l123 6v-156h-527 v133q43 0 67.5 13t36.5 37t15 57.5t3 74.5v345q0 37 1.5 82.5t6.5 91.5l-144 -6v155q71 0 125.5 6t93 15t62 19.5t34.5 20.5h101l9 -101h3q30 23 66 44t73.5 36.5t78 24.5t80.5 9q94 0 155.5 -33t98.5 -102q37 31 78 56t84.5 42.5t87 27t84.5 9.5q82 0 145 -22.5t105 -73 t63.5 -131.5t21.5 -199v-302q0 -15 -0.5 -36t-1.5 -45t-2.5 -49.5t-3.5 -48.5l133 6v-156h-517v133q35 0 55.5 13t31 37t13 57.5t2.5 74.5l-1 314q0 69 -12.5 115t-34 73t-52 38t-67.5 11q-52 -1 -94 -20t-77 -47q8 -42 12.5 -90t4.5 -105v-275z"/>
<glyph glyph-name="n" horiz-adv-x="1303" unicode="n" d="M1139 329q0 -15 -0.5 -36t-1.5 -45t-2.5 -49.5t-3.5 -48.5l133 6v-156h-537v133q43 0 67.5 13t36.5 37t15 57.5t3 74.5l-1 292q-1 135 -41 198t-125 63q-53 0 -102.5 -22t-84.5 -53v-464q0 -15 -0.5 -36t-1.5 -45t-2.5 -49.5t-3.5 -48.5l133 6v-156h-537v133 q43 0 67.5 13t36.5 37t15 57.5t3 74.5v345q0 37 1.5 82.5t6.5 91.5l-144 -6v155q71 0 125.5 6t93 15t62 19.5t34.5 20.5h101l9 -101h3q30 23 68.5 44t79 36.5t79 24.5t69.5 9q94 0 159.5 -26.5t107 -81.5t60.5 -141t19 -204v-275z"/>
<glyph glyph-name="o" horiz-adv-x="1159" unicode="o" d="M579 1057q110 0 204.5 -36t163.5 -104t108.5 -165.5t39.5 -220.5q0 -129 -37.5 -233.5t-105 -178t-161.5 -113t-206 -39.5q-111 0 -206.5 36.5t-165.5 104t-110 164t-40 217.5q0 127 41 232t111.5 179.5t164.5 115.5t199 41zM575 913q-60 -2 -100 -34.5t-65 -84.5 t-35.5 -117.5t-10.5 -132.5q0 -79 12.5 -156.5t40 -138.5t71 -99t105.5 -38q61 1 99.5 34t61 85.5t31 117.5t8.5 131q0 76 -10.5 153.5t-36 139.5t-67 101t-104.5 39z"/>
<glyph glyph-name="p" horiz-adv-x="1231" unicode="p" d="M186 660q0 37 1.5 82.5t6.5 91.5l-144 -6v155q71 0 125 6t92.5 15t62 19.5t34.5 20.5h101l10 -98h3q70 62 140 86.5t134 24.5q92 0 168 -36.5t130.5 -104t84.5 -163.5t30 -215q0 -124 -36.5 -228.5t-103 -180.5t-160 -119t-207.5 -43q-57 0 -100.5 11.5t-81.5 25.5v-197 q0 -15 -0.5 -36t-1.5 -45t-2.5 -49.5t-3.5 -48.5l133 6v-156h-537v133q43 0 67.5 13t36.5 37t15 57.5t3 74.5v867zM641 872q-51 -2 -94.5 -26t-70.5 -63v-625q10 -8 26.5 -15t36 -12t41.5 -8t44 -3q71 0 117.5 32.5t74 86.5t38.5 124t11 144q0 72 -13 138t-40 116.5 t-69.5 80.5t-101.5 30z"/>
<glyph glyph-name="q" horiz-adv-x="1174" unicode="q" d="M586 152q51 0 97 26.5t73 68.5v481q0 57 -15 92.5t-38.5 54.5t-51.5 25.5t-54 6.5q-68 0 -113 -34t-71 -89.5t-36.5 -125.5t-10.5 -141q1 -66 13.5 -131.5t38.5 -117t67.5 -84t100.5 -32.5zM1046 -193q0 -15 -0.5 -36t-1.5 -45t-2.5 -49.5t-3.5 -48.5l133 6v-156h-537 v133q42 0 66.5 13t36.5 37t15.5 57.5t3.5 74.5l2 289h-2q-66 -64 -135 -89.5t-142 -25.5q-92 0 -168 36.5t-130.5 104t-84.5 163.5t-30 215q0 124 36.5 228.5t103.5 180.5t161.5 119t210.5 43q57 0 101 -7t78.5 -16t60.5 -16t47 -7q15 0 36.5 8.5t33.5 24.5h111v-1237z"/>
<glyph glyph-name="r" horiz-adv-x="984" unicode="r" d="M792 1057q36 0 68.5 -10t57 -30.5t39 -52.5t14.5 -77q0 -24 -8 -49.5t-25 -46.5t-44.5 -34.5t-66.5 -13.5q-21 0 -43 5.5t-40.5 19t-32 36.5t-16.5 59q-31 0 -62.5 -20.5t-59 -51t-48.5 -65.5t-30 -63v-334q0 -15 -0.5 -36t-1.5 -45t-2.5 -49.5t-3.5 -48.5l133 6v-156 h-537v133q43 0 67.5 13t36.5 37t15 57.5t3 74.5v345q0 37 1.5 82.5t6.5 91.5l-144 -6v155q71 0 125.5 6t93 15t62 19.5t34.5 20.5h101l9 -176h3q20 27 48.5 60t66 61.5t82.5 48t98 19.5z"/>
<glyph glyph-name="s" horiz-adv-x="993" unicode="s" d="M225 338q4 -47 30 -88t68 -71t98.5 -47t121.5 -17q25 0 50.5 6t45.5 18.5t32.5 31.5t12.5 46q0 29 -15.5 49.5t-45.5 38t-74.5 34.5t-102.5 40q-64 25 -129 51.5t-118 64.5t-86.5 93.5t-33.5 138.5q0 59 22.5 118t69.5 106t120 76.5t174 29.5q28 0 60.5 -4t65.5 -12.5 t64 -21.5t56 -31h2l-3 58h156v-362h-132q-9 53 -33.5 95.5t-61.5 72t-84.5 45.5t-102.5 16q-26 0 -50.5 -6t-43.5 -19t-30 -33.5t-11 -50.5q0 -36 19 -59.5t53 -40.5t79.5 -31.5t98.5 -32.5q78 -27 144 -59t114 -74.5t75.5 -97t27.5 -126.5q0 -80 -31.5 -139.5t-83.5 -98.5 t-119 -58.5t-139 -19.5q-44 0 -88 6t-84 16.5t-73.5 25.5t-57.5 33h-2l7 -62h-156l-8 352h132z"/>
<glyph glyph-name="t" horiz-adv-x="846" unicode="t" d="M34 1024q53 1 99 26.5t82.5 63.5t62 83t37.5 84h151l-1 -257h261v-158l-261 -5q-1 -145 -1.5 -240.5t-1 -153t-0.5 -82v-28.5q0 -36 4.5 -71.5t18 -64t38 -46t63.5 -17.5q13 0 32.5 4t44 16.5t52.5 37t57 65.5l99 -92q-56 -82 -112 -127t-107 -66t-93 -25t-70 -4 q-34 0 -70.5 5.5t-72 20.5t-67 42.5t-56 71.5t-38.5 106.5t-14 147.5l3 494l-140 -2v171z"/>
<glyph glyph-name="u" horiz-adv-x="1266" unicode="u" d="M1091 329q-1 -57 -2 -81t-2.5 -49.5t-3.5 -48.5l133 6v-156h-389l-11 107h-2q-31 -27 -64.5 -52.5t-71 -45t-80 -31t-91.5 -11.5q-91 0 -155.5 26.5t-105.5 81.5t-60 140.5t-19 204.5v235q0 37 1.5 85t6.5 94l-144 -6v155q71 0 125.5 6t93 15t62 19.5t34.5 20.5h112v-627 q0 -135 34.5 -198t112.5 -63q25 0 52 7.5t53 21t49.5 31.5t41.5 38v401q0 37 1.5 85t6.5 94l-144 -6v155q71 0 125 6t92.5 15t62 19.5t34.5 20.5h112v-715z"/>
<glyph glyph-name="v" horiz-adv-x="1101" unicode="v" d="M492 893q-38 -2 -53.5 -20.5t-15.5 -47.5q0 -20 5.5 -43t14.5 -49l172 -424h2l149 422q18 50 33.5 81.5t34.5 61.5v2l-127 -8v156h388v-131q-36 -6 -65.5 -33.5t-53 -64.5t-41 -76.5t-29.5 -70.5l-262 -654h-179l-324 710q-17 37 -26 61.5t-13.5 42t-7 32t-6.5 32.5 l-76 -4v156h480v-131z"/>
<glyph glyph-name="w" horiz-adv-x="1660" unicode="w" d="M980 1024l164 -565q12 -43 25.5 -93t24.5 -92h2q6 42 20.5 90.5t26.5 88.5l79 259q9 28 16 50.5t14.5 41.5t14.5 36t16 34v2l-118 -8v156h389v-131q-41 0 -72 -27t-53.5 -64t-37 -74t-21.5 -57l-233 -677h-217l-141 437q-6 16 -15 45.5t-18.5 64t-20 71.5t-19.5 70h-2 q-6 -43 -19.5 -96.5t-28 -104.5t-27 -92t-18.5 -58l-113 -337h-203l-248 710q-14 39 -22 63t-13.5 41.5t-8.5 31.5t-7 32l-80 -4v156h491v-131q-43 -3 -60.5 -26t-17.5 -59q-1 -17 2.5 -36t9.5 -39l69 -250q12 -45 23.5 -94.5t18.5 -100.5h2q5 22 10 45t11 49.5t14 58 t19 69.5l150 514h222z"/>
<glyph glyph-name="x" horiz-adv-x="1122" unicode="x" d="M920 285q28 -32 53 -64t45 -69l70 4v-156h-483v131q36 2 52 11.5t16 25.5q-2 28 -35 64l-121 128h-2l-95 -114q-5 -7 -16.5 -20.5t-25.5 -28.5t-27.5 -28t-22.5 -19v-2l93 8v-156h-339v131q42 17 78 51.5t78 82.5l178 204l-200 236q-13 15 -30.5 36t-35 44t-31.5 46 t-20 41l-57 -4v156h454v-131q-27 -2 -39 -11t-12 -23q0 -16 12 -36t32 -43l95 -110h2l77 93q25 30 49.5 58.5t50.5 52.5v2l-99 -8v156h361v-131q-63 -26 -111.5 -66.5t-94.5 -96.5l-137 -168z"/>
<glyph glyph-name="y" horiz-adv-x="1128" unicode="y" d="M657 274q9 26 22 68t29.5 95.5t36 116t41.5 129.5q6 19 15 44.5t20.5 52.5t24.5 52t27 42v2l-117 -8v156h364v-131q-64 -16 -105.5 -78.5t-73.5 -155.5l-257 -731q-43 -125 -82 -216.5t-82 -150.5t-95 -87.5t-121 -28.5q-40 0 -74 12t-59 34t-39.5 53t-14.5 69 q0 28 10 53.5t27.5 45t42 31t53.5 11.5q21 0 40 -8.5t33.5 -23.5t23 -36t8.5 -46q0 -13 -3 -28v-2q21 0 44 28.5t46.5 75t45 107t39.5 125.5l-325 649q-29 57 -47 99t-28.5 73.5t-15 56.5t-7.5 48l-94 -4v156h510v-131q-48 -6 -67 -28t-19 -52q0 -19 6 -39.5t15 -40.5 l200 -459h2z"/>
<glyph glyph-name="z" horiz-adv-x="1053" unicode="z" d="M72 0v148l470 621q17 22 34.5 42.5t32 36t25.5 26.5t14 15v2l-277 -4q-36 -1 -61.5 -21.5t-43.5 -55.5t-29.5 -81.5t-19.5 -99.5h-127l29 395h830v-130l-457 -619q-30 -41 -59.5 -71t-55.5 -54v-2l288 -7q48 0 81.5 20t55.5 55.5t35 83t21 102.5h127l-30 -402h-883z"/>
<glyph glyph-name="braceleft" horiz-adv-x="754" unicode="{" d="M172 537q74 -9 137 -37.5t109.5 -74t72.5 -107.5t26 -137q0 -39 -3.5 -84.5t-8 -90.5t-8 -84.5t-3.5 -66.5q0 -83 12.5 -135t39 -81t67.5 -39.5t98 -10.5q7 0 13.5 0.5t14.5 0.5v-145h-57q-233 0 -349 111t-116 327q0 45 3.5 97.5t7 105.5t7 103t3.5 90q0 52 -9.5 88 t-32 58t-60.5 31.5t-95 9.5h-47v146h47q57 0 95 8.5t60.5 28.5t32 54.5t9.5 87.5q0 81 -10.5 166.5t-10.5 176.5q0 217 116 319.5t349 102.5h57v-144q-13 1 -24.5 1h-22.5q-52 0 -89.5 -9.5t-61.5 -37t-35.5 -76.5t-11.5 -127q0 -27 3.5 -60t7.5 -69.5t7.5 -74t3.5 -72.5 q0 -75 -25.5 -135.5t-71.5 -105t-109 -71.5t-138 -34v-4z"/>
<glyph glyph-name="bar" horiz-adv-x="531" unicode="|" d="M407 1556l-8 -2111h-269l-6 2111h283z"/>
<glyph glyph-name="braceright" horiz-adv-x="754" unicode="}" d="M582 541q-75 7 -138 34t-109 71.5t-71.5 105t-25.5 135.5q0 35 3.5 72.5t7.5 74t7.5 69.5t3.5 60q0 78 -11.5 127t-35.5 76.5t-61.5 37t-89.5 9.5h-22.5t-24.5 -1v144h57q233 0 349 -102.5t116 -319.5q0 -91 -10.5 -176.5t-10.5 -166.5q0 -53 9.5 -87.5t32 -54.5 t60.5 -28.5t95 -8.5h47v-146h-47q-57 0 -95 -9.5t-60.5 -31.5t-32 -58t-9.5 -88q0 -40 3.5 -90t7 -103t7 -105.5t3.5 -97.5q0 -216 -116 -327t-349 -111h-57v145q8 0 14.5 -0.5t13.5 -0.5q57 0 98 10.5t67.5 39.5t39 81t12.5 135q0 27 -3.5 66.5t-8 84.5t-8 90.5t-3.5 84.5 q0 75 26 137t72.5 107.5t109.5 74t137 37.5v4z"/>
<glyph glyph-name="asciitilde" horiz-adv-x="1106" unicode="~" d="M351 565q-42 0 -76 -8t-64 -21.5t-57 -31.5t-55 -38v242q32 26 61.5 46.5t60 34.5t64 21t74.5 7q55 0 96 -11.5t73 -28.5t58.5 -37.5t54 -37.5t59 -28.5t73.5 -11.5q68 0 127.5 26.5t108.5 71.5v-242q-42 -48 -102.5 -77.5t-141.5 -29.5q-51 0 -90.5 11.5t-71.5 28.5 t-60 37t-57 37t-61.5 28.5t-73.5 11.5z"/>
<glyph glyph-name="uni00A0" horiz-adv-x="539" unicode=" "/>
<glyph glyph-name="exclamdown" horiz-adv-x="486" unicode="¡" d="M173.021 587.026h138.991l76.9951 -843.948q1 -8.99902 1 -17.999q0 -23.998 -5.99902 -47.9971q-8 -32.998 -26.499 -59.4961t-47.4971 -43.4971t-67.9961 -16.999q-40.9971 0 -69.9951 16.999t-46.9971 43.4971t-24.999 59.4961q-4.99902 22.999 -4.99902 45.9971 q0 10 1 19.999zM94.0254 898.008q0 32.998 12.499 61.9961t33.498 50.4971t47.9971 33.998t55.9961 12.499q29.998 0 56.4971 -12.499q26.498 -12.499 46.9971 -33.998t31.998 -50.4971t11.499 -61.9961t-11.999 -62.4961t-32.498 -51.4971t-47.4971 -34.498 t-56.9971 -12.499q-31.998 0 -58.9961 12.499t-46.9971 34.498t-30.998 51.4971t-10.999 62.4961z"/>
<glyph glyph-name="cent" horiz-adv-x="1157" unicode="¢" d="M754 756q0 18 6 43.5t19 45.5q-11 20 -28.5 33t-37 21t-39 11t-34.5 3q-52 0 -95 -23.5t-74.5 -70t-49 -114.5t-17.5 -157q0 -78 14.5 -150t47.5 -127t87 -88t133 -33q41 0 82.5 11.5t79.5 32t72.5 49.5t61.5 64l94 -91q-45 -62 -92 -105.5t-95 -72t-96 -43.5t-95 -21 l-1 -254h-169l-1 254q-90 12 -167 52t-134 106t-89.5 156t-32.5 202q0 102 30.5 194.5t86.5 167t135 125.5t176 70l-1 235h181l-2 -229q80 -9 140 -35t100.5 -63.5t60.5 -83.5t20 -95q0 -31 -9.5 -59t-28 -49t-45.5 -33t-61 -12q-38 0 -63 13t-41 32.5t-22.5 43t-6.5 44.5z "/>
<glyph glyph-name="sterling" horiz-adv-x="1173" unicode="£" d="M545 604q3 -15 4.5 -32t1.5 -34q0 -75 -34 -145t-105 -119v-2q49 20 89 26.5t75 6.5q57 0 101 -16t80 -35.5t66 -35.5t59 -16q23 0 45.5 28.5t26.5 89.5h134q-3 -76 -19.5 -140.5t-46 -112t-72.5 -74t-100 -26.5q-41 0 -79.5 13t-75.5 33t-73 43.5t-74 42.5t-77.5 33 t-81.5 16q-9 -38 -26.5 -70.5t-40 -57.5t-49 -39t-53.5 -14q-32 0 -54 9.5t-35.5 25.5t-19.5 36.5t-6 42.5q0 30 13.5 58.5t37 53.5t56 45t70.5 34q7 13 13.5 31.5t11.5 38.5t8 39.5t3 35.5q0 52 -7 96.5t-18 86.5l-161 -3v171h115q-11 45 -17.5 94.5t-6.5 110.5 q0 118 35.5 210t95 155t137.5 96t163 33q95 0 161 -25t107 -63t59.5 -82.5t18.5 -83.5q0 -31 -9 -59t-26.5 -49t-43 -33t-58.5 -12q-36 0 -61.5 13t-41.5 32t-23.5 40.5t-7.5 39.5q0 27 7.5 55t27.5 52q-10 12 -31.5 22t-56.5 10q-55 0 -92 -25.5t-59.5 -65.5t-32 -89 t-9.5 -96q0 -81 9 -150t21 -130h322v-158z"/>
<glyph glyph-name="currency" horiz-adv-x="1160" unicode="¤" d="M580 777q-40 0 -66.5 -24.5t-42.5 -59.5t-23 -74t-7 -69q0 -38 6 -85t22 -87.5t42.5 -68t68.5 -27.5t69 27.5t42.5 68t22 87.5t6.5 85q0 30 -7 69t-23.5 74t-43 59.5t-66.5 24.5zM276 999l102 -128q42 26 92 41t110 15t110 -15.5t92 -41.5l102 128l148 -118l-124 -141 q61 -104 61 -219t-55 -211l118 -134l-148 -119l-98 123q-86 -53 -207 -53q-60 0 -111.5 13.5t-93.5 38.5l-97 -122l-149 119l118 134q-55 96 -55 211q0 57 15.5 112.5t44.5 106.5l-123 141z"/>
<glyph glyph-name="yen" horiz-adv-x="1479" unicode="¥" d="M915 286q-1 -43 -2.5 -78.5t-4.5 -55.5l164 6v-158h-598v135q33 1 58.5 5.5t43.5 19t29 43.5t14 80l-223 -1v159h224v102h-224v158h100l-254 386q-15 24 -29.5 51t-25 53.5t-17 50t-6.5 40.5l-99 -6v158h603v-135q-6 0 -11.5 0.5t-10.5 0.5q-57 0 -91.5 -20.5 t-34.5 -61.5q0 -32 27 -77l157 -257q7 -12 21 -35.5t29.5 -52t30 -57t22.5 -50.5h3q19 46 96 198l106 209q8 16 21 41t28 52t30 52t29 41v2l-157 -8v158h452v-135q-36 -6 -65.5 -20t-56.5 -39.5t-53.5 -64.5t-56.5 -95l-203 -383h140v-151h-204v-108h204v-152h-205z"/>
<glyph glyph-name="brokenbar" horiz-adv-x="507" unicode="¦" d="M369 231l-8 -786h-217l-6 786h231zM369 1557l-8 -790h-217l-6 790h231z"/>
<glyph glyph-name="section" horiz-adv-x="1124" unicode="§" d="M729 -155q0 42 -17 78t-45 68t-64 59.5t-74 52t-75.5 46t-68.5 41.5q-56 36 -109.5 78t-94.5 92.5t-66 112t-25 136.5q0 81 43 163.5t116 151.5q-48 60 -64.5 125t-16.5 125q0 39 9.5 82.5t30 86t53 81t77.5 68t103.5 47t132.5 17.5q84 0 154 -24.5t120 -63.5t77.5 -88.5 t27.5 -99.5q0 -30 -8.5 -56t-25 -46t-41 -31.5t-55.5 -11.5q-35 0 -59 12t-39 30t-22 38.5t-7 37.5q0 22 5 43.5t18 41.5q-15 32 -53 52t-84 20q-47 0 -81.5 -15.5t-57 -39.5t-34 -54t-12.5 -60q1 -46 18 -84.5t44.5 -71.5t63 -61t74 -53.5t77.5 -48t74 -44.5 q55 -36 107 -77.5t92 -92t64 -111.5t24 -134q0 -40 -12 -81.5t-33 -82.5t-50 -80t-64 -74q13 -20 27.5 -43.5t26.5 -50.5t20 -59t8 -69q0 -59 -22.5 -127t-71.5 -126.5t-127.5 -97.5t-190.5 -39q-84 0 -154 24.5t-120 63.5t-77.5 88.5t-27.5 99.5q0 30 8.5 56t25 46 t40.5 31.5t55 11.5q35 0 59.5 -12.5t39.5 -30.5t22 -38.5t7 -36.5q0 -22 -5 -43.5t-18 -41.5q7 -17 21.5 -30t34 -22.5t42 -14.5t45.5 -5q47 0 82 14.5t58 38t34 53t11 60.5zM325 678q0 -47 23 -88.5t60.5 -78.5t85.5 -70.5t97.5 -64.5t97 -59.5t84.5 -56.5q14 30 22 65.5 t8 67.5q0 47 -23 88.5t-60.5 78.5t-85.5 70t-97.5 63.5t-97 59t-84.5 56.5q-15 -31 -22.5 -64.5t-7.5 -66.5z"/>
<glyph glyph-name="dieresis" horiz-adv-x="874" unicode="¨" d="M751 1382q0 -32 -11 -60t-29.5 -49t-43.5 -33t-52 -12q-28 0 -52.5 12t-43 33t-29.5 49t-11 60t11 60.5t30 49.5t44 33.5t52 12.5q29 0 54 -12.5t43 -33.5t28 -49.5t10 -60.5zM395 1382q0 -32 -11 -60t-29.5 -49t-43.5 -33t-52 -12q-28 0 -52.5 12t-43 33t-29.5 49 t-11 60t11 60.5t30 49.5t44 33.5t52 12.5q29 0 54 -12.5t43 -33.5t28 -49.5t10 -60.5z"/>
<glyph glyph-name="copyright" horiz-adv-x="1874" unicode="©" d="M240 697q0 -99 22 -191t64.5 -172.5t104 -147t140 -114t173 -74t203.5 -26.5q159 0 286.5 57.5t217 156.5t138 230.5t48.5 280.5q0 99 -22 191.5t-64.5 173.5t-103.5 148.5t-138 116t-169.5 75t-198.5 26.5q-105 0 -197.5 -26.5t-170.5 -75t-139.5 -115.5t-104.5 -148.5 t-66 -174t-23 -191.5zM95 697q0 117 29 225t83 202.5t130 172t170.5 133t204.5 86t232 30.5q123 0 233 -30.5t203 -86.5t167 -134t126 -172.5t79.5 -203t27.5 -225.5q0 -116 -29.5 -223.5t-84 -201t-130.5 -170t-169.5 -131t-201 -84.5t-224.5 -30q-188 0 -344 63 t-267.5 175.5t-173 267t-61.5 337.5zM968 1066q-54 0 -101.5 -26t-83 -73t-55.5 -111.5t-20 -140.5q0 -71 21 -133.5t61 -109t98 -74t132 -27.5q72 0 142.5 38t130.5 112l97 -93q-51 -70 -109 -115.5t-116 -72.5t-112.5 -37.5t-97.5 -10.5q-107 0 -197 39t-155 106.5 t-102 159t-37 196.5q0 59 13 120t39 118.5t65 107.5t91.5 87.5t118.5 59.5t145 22q69 0 128.5 -14.5t117.5 -56.5q-1 6 -1.5 16t-1 19.5t-0.5 17.5v11h156v-359h-136q-8 61 -29.5 104t-53 69.5t-69.5 38.5t-79 12z"/>
<glyph glyph-name="ordfeminine" horiz-adv-x="790" unicode="ª" d="M102 1265q0 39 21.5 75.5t59.5 64.5t90.5 45t114.5 17q121 0 186.5 -64t65.5 -203q0 -26 -0.5 -56t-0.5 -61t-0.5 -61t-0.5 -55q0 -10 1 -22t5 -23t11 -18.5t19 -7.5q8 0 16 1.5t19 9.5l40 -60q-31 -42 -75.5 -68.5t-89.5 -26.5q-22 0 -43 7t-38.5 21.5t-29 36.5 t-14.5 52h-2q-15 -29 -37 -50.5t-47.5 -36.5t-51.5 -22.5t-48 -7.5q-97 0 -149 42.5t-52 121.5q0 58 33.5 100t86 70t118 43.5t130.5 20.5v89q0 20 -2 40t-9.5 36.5t-23 27t-42.5 10.5q-20 0 -40.5 -6.5t-34.5 -20.5q8 -12 11.5 -29t3.5 -30q0 -15 -5.5 -33t-18 -33 t-32 -25.5t-47.5 -10.5q-48 0 -73 29t-25 71zM282 950q2 -18 15.5 -32t42.5 -14q50 0 100 50v99q-30 -3 -58 -10.5t-50.5 -20t-36 -29.5t-13.5 -38v-5z"/>
<glyph glyph-name="guillemotleft" horiz-adv-x="1011" unicode="«" d="M491.031 530.035v46.9971l348.979 408.976l95.9941 -78.9951l-204.987 -344.979v-3l201.987 -345.979l-94.9941 -79.9951zM41.0596 525.035v47.9971l546.966 568.966l96.9941 -98.9941l-386.976 -496.97v-2l379.977 -475.971l-95.9941 -93.9941z"/>
<glyph glyph-name="logicalnot" horiz-adv-x="1190" unicode="¬" d="M129 741l921 -5v-430h-179l-6 238l-736 -3v200z"/>
<glyph glyph-name="uni00AD" horiz-adv-x="957" unicode="­" d="M103 761h751v-207l-751 -7v214z"/>
<glyph glyph-name="registered" horiz-adv-x="1874" unicode="®" d="M240 697q0 -99 22 -191t64.5 -172.5t104 -147t140 -114t173 -74t203.5 -26.5q159 0 286.5 57.5t217 156.5t138 230.5t48.5 280.5q0 99 -22 191.5t-64.5 173.5t-103.5 148.5t-138 116t-169.5 75t-198.5 26.5q-105 0 -197.5 -26.5t-170.5 -75t-139.5 -115.5t-104.5 -148.5 t-66 -174t-23 -191.5zM95 697q0 117 29 225t83 202.5t130 172t170.5 133t204.5 86t232 30.5q123 0 233 -30.5t203 -86.5t167 -134t126 -172.5t79.5 -203t27.5 -225.5q0 -116 -29.5 -223.5t-84 -201t-130.5 -170t-169.5 -131t-201 -84.5t-224.5 -30q-188 0 -344 63 t-267.5 175.5t-173 267t-61.5 337.5zM890 725q103 0 155.5 49.5t52.5 140.5q0 60 -20 94t-48.5 51t-59.5 21.5t-52 4.5q-42 0 -63.5 -22.5t-21.5 -88.5v-244q17 -4 28.5 -5t28.5 -1zM1220 461q23 -35 40 -59t33 -39.5t33.5 -23t41.5 -8.5v-90h-215q-24 19 -51 51.5t-53 77.5 q-46 77 -71 121t-38 67.5t-18 33t-11 17.5q-11 -1 -20.5 -1h-18.5h-18.5t-20.5 1v-141q0 -37 -0.5 -72t-1.5 -52l116 4v-107h-413v90q24 1 42 4.5t30.5 15.5t19 35.5t6.5 65.5v518q0 40 2 74.5t4 51.5l-104 -4v107l387 1q88 0 160 -15t123.5 -48t79.5 -86.5t28 -131.5 q0 -46 -12 -89t-39 -80t-71 -66t-107 -47v-1q26 -11 45 -34.5t37 -52.5z"/>
<glyph glyph-name="macron" horiz-adv-x="766" unicode="¯" d="M92 1481h582v-189l-582 -7v196z"/>
<glyph glyph-name="degree" horiz-adv-x="782" unicode="°" d="M58 1139q0 70 27 130t73 104t107 69t129 25q76 0 137.5 -25t104.5 -69t66.5 -104t23.5 -130t-27 -130.5t-73 -105t-107.5 -70t-129.5 -25.5q-76 0 -137 25.5t-104 70t-66.5 105t-23.5 130.5zM232 1139q0 -37 11.5 -70.5t32.5 -58.5t50.5 -40t65.5 -15t65.5 15t50.5 40 t32.5 58.5t11.5 70.5t-11.5 70t-32.5 58.5t-51 40.5t-66 15q-35 0 -64.5 -15t-50.5 -40.5t-32.5 -58.5t-11.5 -70z"/>
<glyph glyph-name="plusminus" horiz-adv-x="1139" unicode="±" d="M1030 1h-921v180l921 8v-188zM109 760l357 -2v296h205v-296l359 -1v-189l-359 -2v-312h-205v311l-357 -1v196z"/>
<glyph glyph-name="twosuperior" horiz-adv-x="767" unicode="²" d="M260 1315q17 -14 22.5 -33.5t5.5 -30.5q0 -14 -5.5 -31t-18 -31.5t-32.5 -24.5t-48 -10q-48 2 -72 33.5t-24 76.5q0 31 18 66.5t53 66t87 50.5t121 20q52 0 103 -12t91 -38t64.5 -67.5t24.5 -101.5q0 -54 -27.5 -98.5t-72 -86.5t-100 -84.5t-112.5 -93.5q-15 -13 -25 -24 t-17.5 -22t-14 -22.5t-13.5 -25.5l252 -5q27 -1 43.5 12.5t16.5 63.5h97l-11 -244h-571q1 71 18 125.5t45 99t64.5 82t77.5 73.5q39 35 64 68.5t39 63.5t19 56t5 46q0 63 -26 89.5t-71 26.5q-20 0 -41 -10t-29 -23z"/>
<glyph glyph-name="threesuperior" horiz-adv-x="748" unicode="³" d="M74 797q0 23 7.5 44.5t21.5 37.5t34 25.5t44 9.5q27 0 45 -9.5t29 -24t15.5 -32.5t4.5 -36q0 -6 -1.5 -15t-5 -19.5t-9 -20.5t-13.5 -17q7 -11 19 -17t25 -9.5t25.5 -4.5t20.5 -1q60 0 94 38.5t34 99.5q0 65 -41 106.5t-122 41.5q-16 0 -36.5 -1t-32.5 -2v111l36 -2 t35 -1q39 0 65 13t41 33.5t21.5 45.5t6.5 49q0 55 -27.5 85.5t-78.5 30.5q-27 0 -45.5 -8.5t-26.5 -15.5q17 -14 22.5 -33.5t5.5 -30.5q0 -14 -5 -31t-17 -31.5t-31 -24.5t-47 -10q-48 2 -74 30.5t-26 73.5q0 29 16.5 63t50.5 62.5t86 47.5t124 19q59 0 109.5 -13t87.5 -40 t58 -67.5t21 -94.5q0 -29 -12 -58t-33 -54t-49 -43t-60 -26v-2q102 -20 147.5 -76.5t45.5 -140.5q0 -54 -21.5 -100.5t-63.5 -80.5t-104.5 -53.5t-144.5 -19.5q-63 0 -113.5 17t-85.5 44.5t-53.5 63.5t-18.5 74z"/>
<glyph glyph-name="acute" horiz-adv-x="578" unicode="´" d="M184 1158l-94 83l168 286q21 34 53.5 54.5t67.5 20.5q24 0 43.5 -9.5t34 -25t22.5 -35.5t8 -40q0 -32 -15 -63.5t-39 -54.5z"/>
<glyph glyph-name="mu" horiz-adv-x="1253" unicode="µ" d="M1005 1024l-2 -733q0 -12 0.5 -30t5 -34.5t14.5 -28t30 -11.5q14 0 32.5 7t42.5 29l69 -86q-18 -25 -44.5 -51t-59 -47.5t-69.5 -35.5t-76 -14q-60 0 -106 30.5t-63 100.5h-2q-60 -73 -121.5 -112t-118.5 -39q-106 0 -165 143h-2q4 -85 16.5 -164.5t26 -147t24 -119.5 t10.5 -81t-6.5 -57t-22 -49.5t-40.5 -35t-62 -13.5q-39 0 -66.5 15.5t-45 43.5t-25 67.5t-7.5 87.5l1 1365h255v-558q0 -69 9 -125t27 -96t46 -62t66 -22t86.5 17t86.5 59v787h256z"/>
<glyph glyph-name="paragraph" horiz-adv-x="1174" unicode="¶" d="M994 1434v-1956h-232l3 1814l-192 -2q0 -137 -0.5 -287t-0.5 -305.5t-1 -314.5t-1 -314.5t-0.5 -305t-0.5 -285.5h-230l5 1343q-50 9 -96.5 29t-83.5 56t-59 89.5t-22 129.5q0 79 26.5 137t70.5 96t100 57t115 19h599z"/>
<glyph glyph-name="periodcentered" horiz-adv-x="463" unicode="·" d="M380 699q0 -33 -10.5 -62t-29 -50.5t-45.5 -34t-60 -12.5q-34 0 -62 12.5t-48 34t-31 50.5t-11 62t12 62.5t32.5 51.5t47.5 34.5t57 12.5q32 0 59 -12.5t47 -34.5t31 -51.5t11 -62.5z"/>
<glyph glyph-name="cedilla" horiz-adv-x="665" unicode="¸" d="M424 -109q31 -1 58.5 -9.5t47.5 -26t31.5 -44t11.5 -63.5q0 -48 -23.5 -85.5t-62 -66.5t-88 -50.5t-101 -36.5t-101.5 -24.5t-89 -14.5l-16 106q16 3 40.5 8t52 12.5t55 17.5t49.5 23.5t35.5 30.5t13.5 38q0 27 -17 38t-40 11t-45.5 -8t-36.5 -19l-76 32l63 260h156 l-60 -161h2q13 7 31 13t37.5 10t38 6.5t33.5 2.5z"/>
<glyph glyph-name="onesuperior" horiz-adv-x="569" unicode="¹" d="M83 1191l-41 80l300 196h71v-658q0 -32 -1 -61t-3 -44l88 3v-90h-365v77q19 1 34.5 4t26 13t16 30t5.5 55v471z"/>
<glyph glyph-name="ordmasculine" horiz-adv-x="775" unicode="º" d="M391 1467q75 0 134.5 -26.5t101 -74t63.5 -113t22 -144.5q0 -80 -22.5 -147t-65 -115t-103 -74.5t-135.5 -26.5q-74 0 -134 26t-102 72t-65 109.5t-23 138.5q0 79 23 148t65.5 119t103.5 79t137 29zM388 1355q-51 -2 -79 -58.5t-28 -170.5q0 -128 27.5 -196.5t87.5 -68.5 q49 2 76 58.5t27 167.5q0 62 -6 112t-19 84.5t-34 53t-52 18.5z"/>
<glyph glyph-name="guillemotright" horiz-adv-x="1011" unicode="»" d="M520 578v-47l-349 -409l-96 79l205 345v3l-202 346l95 80zM970 583v-48l-547 -569l-97 99l387 497v2l-380 476l96 94z"/>
<glyph glyph-name="onequarter" horiz-adv-x="1621" unicode="¼" d="M1317 1357l-913 -1390l-133 99l907 1401zM118 1191l-41 80l300 196h71v-658q0 -32 -1 -61t-3 -44l88 3v-90h-365v77q19 1 34.5 4t26 13t16 30t5.5 55v471zM1043 317l178 -3l9 244h-2zM1414 197v-13q0 -32 -1 -61t-3 -44l88 3v-90h-365v77q19 1 35 4t26.5 13t16.5 30t6 55 v27l-310 2v120l436 522h71v-531h121v-115z"/>
<glyph glyph-name="onehalf" horiz-adv-x="1705" unicode="½" d="M1317 1357l-913 -1390l-133 99l907 1401zM118 1191l-41 80l300 196h71v-658q0 -32 -1 -61t-3 -44l88 3v-90h-365v77q19 1 34.5 4t26 13t16 30t5.5 55v471zM1194 688q17 -14 22.5 -33.5t5.5 -30.5q0 -14 -5.5 -31t-18 -31.5t-32.5 -24.5t-48 -10q-48 2 -72 33.5t-24 76.5 q0 31 18 66.5t53 66t87 50.5t121 20q52 0 103 -12t91 -38t64.5 -67.5t24.5 -101.5q0 -54 -27.5 -98.5t-72 -86.5t-100 -84.5t-112.5 -93.5q-15 -13 -25 -24t-17.5 -22t-14 -22.5t-13.5 -25.5l252 -5q27 -1 43.5 12.5t16.5 63.5h97l-11 -244h-571q1 71 18 125.5t45 99 t64.5 82t77.5 73.5q39 35 64 68.5t39 63.5t19 56t5 46q0 63 -26 89.5t-71 26.5q-20 0 -41 -10t-29 -23z"/>
<glyph glyph-name="threequarters" horiz-adv-x="1755" unicode="¾" d="M1451 1357l-913 -1390l-133 99l907 1401zM90 797q0 23 7.5 44.5t21.5 37.5t34 25.5t44 9.5q27 0 45 -9.5t29 -24t15.5 -32.5t4.5 -36q0 -6 -1.5 -15t-5 -19.5t-9 -20.5t-13.5 -17q7 -11 19 -17t25 -9.5t25.5 -4.5t20.5 -1q60 0 94 38.5t34 99.5q0 65 -41 106.5t-122 41.5 q-16 0 -36.5 -1t-32.5 -2v111l36 -2t35 -1q39 0 65 13t41 33.5t21.5 45.5t6.5 49q0 55 -27.5 85.5t-78.5 30.5q-27 0 -45.5 -8.5t-26.5 -15.5q17 -14 22.5 -33.5t5.5 -30.5q0 -14 -5 -31t-17 -31.5t-31 -24.5t-47 -10q-48 2 -74 30.5t-26 73.5q0 29 16.5 63t50.5 62.5 t86 47.5t124 19q59 0 109.5 -13t87.5 -40t58 -67.5t21 -94.5q0 -29 -12 -58t-33 -54t-49 -43t-60 -26v-2q102 -20 147.5 -76.5t45.5 -140.5q0 -54 -21.5 -100.5t-63.5 -80.5t-104.5 -53.5t-144.5 -19.5q-63 0 -113.5 17t-85.5 44.5t-53.5 63.5t-18.5 74zM1181 317l178 -3 l9 244h-2zM1552 197v-13q0 -32 -1 -61t-3 -44l88 3v-90h-365v77q19 1 35 4t26.5 13t16.5 30t6 55v27l-310 2v120l436 522h71v-531h121v-115z"/>
<glyph glyph-name="questiondown" horiz-adv-x="1010" unicode="¿" d="M381.039 -75.9326q0 -47.9971 7.99902 -88.9951q8 -40.9971 27.999 -70.9951q19.998 -29.998 53.4961 -46.9971t85.4951 -16.999q24.998 0 48.9971 5.99902q23.998 6 44.4971 15.499q20.499 9.5 36.498 20.999t25.998 23.499q-20.999 20.998 -29.498 50.9971 q-8.49902 29.998 -8.49902 50.9961q0 19.999 7.49902 43.998q7.5 23.998 23.499 44.9971q15.999 20.998 41.4971 35.4971q25.498 14.5 60.4961 14.5t60.9961 -11q25.999 -10.999 42.998 -30.498t24.998 -46.4971q8 -26.998 8 -57.9961q0 -54.9971 -32.498 -108.993 q-32.498 -53.9971 -89.4951 -97.4941q-56.9961 -43.498 -134.991 -70.4961t-169.99 -26.998q-120.992 0 -204.487 27.998t-134.491 73.9951q-50.9971 45.9971 -73.4961 104.494q-22.498 58.4961 -22.498 119.492q0 71.9961 31.498 132.992t78.9951 113.493t102.493 96.9941 q54.9971 44.4971 102.494 83.4951q47.4971 38.9971 78.9951 73.4951t31.498 67.4961q0 25.998 -19.499 42.9971t-61.4961 16.999q-13.999 0 -29.498 -1.5t-33.498 -6.49902l-31.998 104.993q25.998 13.999 53.4971 22.499q27.498 8.49902 53.9961 13.499 q26.499 4.99902 50.9971 6.99902q24.499 2 43.4971 2q32.998 0 64.9961 -7.49902q31.998 -7.5 56.9971 -24.499q24.998 -16.999 40.4971 -43.9971t15.499 -65.9961q0 -24.998 -6.49902 -47.9971q-6.5 -22.999 -24.999 -50.9971t-50.9971 -64.4961 q-32.498 -36.4971 -84.4941 -87.4941q-35.998 -35.998 -65.9961 -70.9961t-51.4971 -74.4951q-21.499 -39.498 -33.998 -85.4951t-12.499 -104.993zM364.04 898.008q0 32.998 12.499 61.9961t33.498 50.4971t47.9971 33.998t55.9971 12.499q29.998 0 56.4961 -12.499 t46.9971 -33.998t31.998 -50.4971t11.499 -61.9961t-11.999 -62.4961t-32.498 -51.4971t-47.4971 -34.498t-56.9961 -12.499q-31.998 0 -58.9971 12.499q-26.998 12.499 -46.9971 34.498q-19.998 21.999 -30.998 51.4971q-10.999 29.498 -10.999 62.4961z"/>
<glyph glyph-name="Agrave" d="M451 573h341l-93 257q-27 75 -48 148.5t-31 130.5h-2q-8 -35 -25 -104t-50 -166zM844 428l-445 -8l-33 -96l-12.5 -35t-17 -44.5t-19 -46t-16.5 -40.5l146 6v-164h-439v141q43 0 72.5 19.5t51.5 51.5t39 74.5t34 88.5l400 1095h142l437 -1116q6 -15 14.5 -40t17.5 -53.5 t16 -57t10 -51.5l118 6v-158h-552v135q55 0 77 21.5t22 58.5q0 21 -6 46.5t-16 54.5zM409 1745q-35 21 -59 54t-24 71q0 22 9 41t24 32.5t33.5 21.5t37.5 8q31 0 61.5 -14.5t54.5 -39.5l235 -242l-73 -101z" unicode="À"/>
<glyph glyph-name="Aacute" d="M451 573h341l-93 257q-27 75 -48 148.5t-31 130.5h-2q-8 -35 -25 -104t-50 -166zM844 428l-445 -8l-33 -96l-12.5 -35t-17 -44.5t-19 -46t-16.5 -40.5l146 6v-164h-439v141q43 0 72.5 19.5t51.5 51.5t39 74.5t34 88.5l400 1095h142l437 -1116q6 -15 14.5 -40t17.5 -53.5 t16 -57t10 -51.5l118 6v-158h-552v135q55 0 77 21.5t22 58.5q0 21 -6 46.5t-16 54.5zM658 1576l-73 101l235 242q24 25 54 39.5t61 14.5q19 0 37.5 -7.5t33.5 -21.5t24 -33t9 -42q0 -38 -23.5 -70t-58.5 -54z" unicode="Á"/>
<glyph glyph-name="Acircumflex" d="M451 573h341l-93 257q-27 75 -48 148.5t-31 130.5h-2q-8 -35 -25 -104t-50 -166zM844 428l-445 -8l-33 -96l-12.5 -35t-17 -44.5t-19 -46t-16.5 -40.5l146 6v-164h-439v141q43 0 72.5 19.5t51.5 51.5t39 74.5t34 88.5l400 1095h142l437 -1116q6 -15 14.5 -40t17.5 -53.5 t16 -57t10 -51.5l118 6v-158h-552v135q55 0 77 21.5t22 58.5q0 21 -6 46.5t-16 54.5zM663 1988h40l400 -307l-64 -95l-365 178l-374 -175l-55 92z" unicode="Â"/>
<glyph glyph-name="Atilde" d="M451 573h341l-93 257q-27 75 -48 148.5t-31 130.5h-2q-8 -35 -25 -104t-50 -166zM844 428l-445 -8l-33 -96l-12.5 -35t-17 -44.5t-19 -46t-16.5 -40.5l146 6v-164h-439v141q43 0 72.5 19.5t51.5 51.5t39 74.5t34 88.5l400 1095h142l437 -1116q6 -15 14.5 -40t17.5 -53.5 t16 -57t10 -51.5l118 6v-158h-552v135q55 0 77 21.5t22 58.5q0 21 -6 46.5t-16 54.5zM535 1732q-39 0 -85 -22t-88 -83l-114 75q23 57 55.5 98.5t70 68t77 39.5t76.5 13q51 0 89.5 -16t72 -34.5t66.5 -34.5t72 -16q21 0 44 10t45.5 27.5t42.5 42t35 53.5l116 -64 q-27 -80 -61 -130t-71 -78.5t-73.5 -39t-67.5 -10.5q-48 0 -85 16t-71 34.5t-69 34.5t-77 16z" unicode="Ã"/>
<glyph glyph-name="Adieresis" d="M451 573h341l-93 257q-27 75 -48 148.5t-31 130.5h-2q-8 -35 -25 -104t-50 -166zM844 428l-445 -8l-33 -96l-12.5 -35t-17 -44.5t-19 -46t-16.5 -40.5l146 6v-164h-439v141q43 0 72.5 19.5t51.5 51.5t39 74.5t34 88.5l400 1095h142l437 -1116q6 -15 14.5 -40t17.5 -53.5 t16 -57t10 -51.5l118 6v-158h-552v135q55 0 77 21.5t22 58.5q0 21 -6 46.5t-16 54.5zM992 1786q0 -32 -11 -60t-30 -49t-44 -33t-52 -12t-52 12t-43.5 33t-29.5 49t-11 60t11.5 60.5t30.5 50t44 34t52 12.5q28 0 53 -12.5t43 -34t28.5 -50t10.5 -60.5zM635 1786 q0 -32 -11 -60t-30 -49t-44 -33t-52 -12t-52 12t-43.5 33t-29.5 49t-11 60t11.5 60.5t30.5 50t44 34t52 12.5q28 0 53 -12.5t43 -34t28.5 -50t10.5 -60.5z" unicode="Ä"/>
<glyph glyph-name="Aring" d="M451 573h341l-93 257q-27 75 -48 148.5t-31 130.5h-2q-8 -35 -25 -104t-50 -166zM844 428l-445 -8l-33 -96l-12.5 -35t-17 -44.5t-19 -46t-16.5 -40.5l146 6v-164h-439v141q43 0 72.5 19.5t51.5 51.5t39 74.5t34 88.5l400 1095h142l437 -1116q6 -15 14.5 -40t17.5 -53.5 t16 -57t10 -51.5l118 6v-158h-552v135q55 0 77 21.5t22 58.5q0 21 -6 46.5t-16 54.5zM663 2061q47 0 96 -15.5t88.5 -47.5t65 -80.5t25.5 -114.5q0 -62 -24.5 -111.5t-63.5 -83.5t-87.5 -52t-96.5 -18q-50 0 -99 15.5t-88 47.5t-63 81t-24 117q0 58 24 106.5t63 83 t87.5 53.5t96.5 19zM656 1952q-37 -3 -59.5 -39.5t-22.5 -99.5q0 -80 27 -122.5t70 -42.5q36 0 60 30.5t24 96.5q0 87 -24 132t-66 45h-9z" unicode="Å"/>
<glyph glyph-name="AE" horiz-adv-x="1915" unicode="Æ" d="M583 565h302v177q0 66 2.5 137t9.5 146q-38 -58 -75 -114t-73 -108zM739 0v135q34 2 61.5 6.5t46 22t28.5 52.5t10 97v111l-401 -10l-72 -105q-33 -48 -65 -89.5t-65 -66.5v-2l164 7v-158h-458v135q36 0 69 20t63 51t58 69t54 75l660 929q0 1 0.5 1.5t0.5 1.5l-154 -6 v158h1025l12 -397h-135q0 80 -22 131.5t-56.5 81t-77 40.5t-83.5 11l-84 -2q-32 -1 -57.5 -6.5t-43 -23.5t-27 -53t-9.5 -95v-307h241l-9 177h158v-498h-135q0 60 -13.5 95.5t-37 54t-53.5 24.5t-69 6h-12l-70 -1v-336q0 -28 -0.5 -54.5t-1.5 -50.5t-2.5 -43.5t-3.5 -32.5 l275 1q45 0 90 15t80 49.5t57 91t22 139.5h135l-12 -451h-1081z"/>
<glyph glyph-name="Ccedilla" horiz-adv-x="1410" unicode="Ç" d="M857 -106q31 -1 59.5 -11t49.5 -28.5t33.5 -46.5t12.5 -65q0 -48 -24 -87.5t-63 -72t-89 -57.5t-102.5 -43t-103 -29.5t-89.5 -16.5l-16 112q16 3 40.5 9.5t52 16.5t54.5 23t49 29t35.5 34.5t13.5 39.5q0 28 -15.5 39t-37.5 11t-46 -9t-39 -21l-85 32l55 233 q-122 28 -220 93.5t-167 158.5t-106 210t-37 248q0 93 20 186.5t59.5 179t99.5 159.5t139.5 129t179 86t218.5 31q40 0 84.5 -6.5t90.5 -19.5t91 -31.5t86 -43.5h2l-7 87h158v-479h-134q-28 171 -113 257.5t-231 86.5q-107 0 -186.5 -49t-131.5 -130t-77.5 -185.5 t-25.5 -215.5q0 -133 28.5 -244t83 -191.5t134.5 -125t184 -44.5q64 0 129 17t126 49.5t115.5 79.5t97.5 106l98 -90q-75 -104 -157 -168t-163 -99.5t-157 -48t-139 -12.5q-5 0 -9.5 0.5t-9.5 0.5l-40 -106h2q13 7 31 13t37.5 10t38 6.5t33.5 2.5z"/>
<glyph glyph-name="Egrave" horiz-adv-x="1278" unicode="È" d="M544 672v-336q0 -28 -0.5 -54.5t-1.5 -50.5t-2.5 -43.5t-3.5 -32.5l275 1q45 0 90 15t80 49.5t57 91t22 139.5h135l-12 -451h-1081v135q34 2 61.5 7t46 22t28.5 52t10 97v785q0 28 0.5 55t1.5 51.5t2.5 44.5t3.5 33l-154 -6v158h1025l12 -397h-135q0 83 -23.5 135 t-59.5 81t-80 39q-40 9 -78 9h-8l-74 -2q-32 -1 -57.5 -6.5t-43 -23.5t-27 -53t-9.5 -95v-307h241l-9 177h158v-498h-135q0 64 -16 101t-43 55q-28 17 -64 21q-28 3 -60 3h-18zM434 1745q-35 21 -59 54t-24 71q0 22 9 41t24 32.5t33.5 21.5t37.5 8q31 0 61.5 -14.5 t54.5 -39.5l235 -242l-73 -101z"/>
<glyph glyph-name="Eacute" horiz-adv-x="1278" unicode="É" d="M544 672v-336q0 -28 -0.5 -54.5t-1.5 -50.5t-2.5 -43.5t-3.5 -32.5l275 1q45 0 90 15t80 49.5t57 91t22 139.5h135l-12 -451h-1081v135q34 2 61.5 7t46 22t28.5 52t10 97v785q0 28 0.5 55t1.5 51.5t2.5 44.5t3.5 33l-154 -6v158h1025l12 -397h-135q0 83 -23.5 135 t-59.5 81t-80 39q-40 9 -78 9h-8l-74 -2q-32 -1 -57.5 -6.5t-43 -23.5t-27 -53t-9.5 -95v-307h241l-9 177h158v-498h-135q0 64 -16 101t-43 55q-28 17 -64 21q-28 3 -60 3h-18zM554 1576l-73 101l235 242q24 25 54 39.5t61 14.5q19 0 37.5 -7.5t33.5 -21.5t24 -33t9 -42 q0 -38 -23.5 -70t-58.5 -54z"/>
<glyph glyph-name="Ecircumflex" horiz-adv-x="1278" unicode="Ê" d="M544 672v-336q0 -28 -0.5 -54.5t-1.5 -50.5t-2.5 -43.5t-3.5 -32.5l275 1q45 0 90 15t80 49.5t57 91t22 139.5h135l-12 -451h-1081v135q34 2 61.5 7t46 22t28.5 52t10 97v785q0 28 0.5 55t1.5 51.5t2.5 44.5t3.5 33l-154 -6v158h1025l12 -397h-135q0 83 -23.5 135 t-59.5 81t-80 39q-40 9 -78 9h-8l-74 -2q-32 -1 -57.5 -6.5t-43 -23.5t-27 -53t-9.5 -95v-307h241l-9 177h158v-498h-135q0 64 -16 101t-43 55q-28 17 -64 21q-28 3 -60 3h-18zM646 1988h40l400 -307l-64 -95l-365 178l-374 -175l-55 92z"/>
<glyph glyph-name="Edieresis" horiz-adv-x="1278" unicode="Ë" d="M544 672v-336q0 -28 -0.5 -54.5t-1.5 -50.5t-2.5 -43.5t-3.5 -32.5l275 1q45 0 90 15t80 49.5t57 91t22 139.5h135l-12 -451h-1081v135q34 2 61.5 7t46 22t28.5 52t10 97v785q0 28 0.5 55t1.5 51.5t2.5 44.5t3.5 33l-154 -6v158h1025l12 -397h-135q0 83 -23.5 135 t-59.5 81t-80 39q-40 9 -78 9h-8l-74 -2q-32 -1 -57.5 -6.5t-43 -23.5t-27 -53t-9.5 -95v-307h241l-9 177h158v-498h-135q0 64 -16 101t-43 55q-28 17 -64 21q-28 3 -60 3h-18zM961 1786q0 -32 -11 -60t-30 -49t-44 -33t-52 -12t-52 12t-43.5 33t-29.5 49t-11 60t11.5 60.5 t30.5 50t44 34t52 12.5q28 0 53 -12.5t43 -34t28.5 -50t10.5 -60.5zM604 1786q0 -32 -11 -60t-30 -49t-44 -33t-52 -12t-52 12t-43.5 33t-29.5 49t-11 60t11.5 60.5t30.5 50t44 34t52 12.5q28 0 53 -12.5t43 -34t28.5 -50t10.5 -60.5z"/>
<glyph glyph-name="Igrave" horiz-adv-x="792" unicode="Ì" d="M544 336q0 -28 -0.5 -55t-1.5 -51.5t-2.5 -44.5t-3.5 -33l154 6v-158h-588v135q34 2 61.5 6.5t46 22t28.5 52.5t10 97v785q0 28 0.5 55t1.5 51.5t2.5 44.5t3.5 33l-154 -6v158h588v-135q-35 -2 -62 -7t-45.5 -22t-28.5 -52t-10 -97v-785zM156 1745q-35 21 -59 54t-24 71 q0 22 9 41t24 32.5t33.5 21.5t37.5 8q31 0 61.5 -14.5t54.5 -39.5l235 -242l-73 -101z"/>
<glyph glyph-name="Iacute" horiz-adv-x="791" unicode="Í" d="M544 336q0 -28 -0.5 -55t-1.5 -51.5t-2.5 -44.5t-3.5 -33l154 6v-158h-588v135q34 2 61.5 6.5t46 22t28.5 52.5t10 97v785q0 28 0.5 55t1.5 51.5t2.5 44.5t3.5 33l-154 -6v158h588v-135q-35 -2 -62 -7t-45.5 -22t-28.5 -52t-10 -97v-785zM323 1576l-73 101l235 242 q24 25 54 39.5t61 14.5q19 0 37.5 -7.5t33.5 -21.5t24 -33t9 -42q0 -38 -23.5 -70t-58.5 -54z"/>
<glyph glyph-name="Icircumflex" horiz-adv-x="792" unicode="Î" d="M544 336q0 -28 -0.5 -55t-1.5 -51.5t-2.5 -44.5t-3.5 -33l154 6v-158h-588v135q34 2 61.5 6.5t46 22t28.5 52.5t10 97v785q0 28 0.5 55t1.5 51.5t2.5 44.5t3.5 33l-154 -6v158h588v-135q-35 -2 -62 -7t-45.5 -22t-28.5 -52t-10 -97v-785zM389 1988h40l320 -307l-64 -95 l-285 178l-294 -175l-55 92z"/>
<glyph glyph-name="Idieresis" horiz-adv-x="792" unicode="Ï" d="M724 1786q0 -32 -11 -60t-30 -49t-44 -33t-52 -12t-52 12t-43.5 33t-29.5 49t-11 60t11.5 60.5t30.5 50t44 34t52 12.5q28 0 53 -12.5t43 -34t28.5 -50t10.5 -60.5zM367 1786q0 -32 -11 -60t-30 -49t-44 -33t-52 -12t-52 12t-43.5 33t-29.5 49t-11 60t11.5 60.5t30.5 50 t44 34t52 12.5q28 0 53 -12.5t43 -34t28.5 -50t10.5 -60.5zM544 336q0 -28 -0.5 -55t-1.5 -51.5t-2.5 -44.5t-3.5 -33l154 6v-158h-588v135q34 2 61.5 6.5t46 22t28.5 52.5t10 97v785q0 28 0.5 55t1.5 51.5t2.5 44.5t3.5 33l-154 -6v158h588v-135q-35 -2 -62 -7t-45.5 -22 t-28.5 -52t-10 -97v-785z"/>
<glyph glyph-name="Eth" horiz-adv-x="1555" unicode="Ð" d="M695 1300h-17q-34 0 -59 -6.5t-41.5 -25t-25 -53t-8.5 -89.5v-307h218v-192l-218 -3v-287q0 -28 -0.5 -55t-1.5 -51.5t-2.5 -44.5t-3.5 -33q7 1 16 1h20q19 0 41 -0.5t43.5 -1t41.5 -1t34 -0.5q112 0 192.5 45.5t132.5 121t77 172.5t25 199q0 157 -32.5 271t-93 188.5 t-146.5 111.5t-192 40zM61 819h187v280q0 28 0.5 55t1.5 51.5t2.5 44.5t3.5 33l-154 -6v158l597 2q135 0 245.5 -28.5t197.5 -78.5t151 -117.5t106 -146t62.5 -164t20.5 -170.5q0 -83 -19 -169.5t-59.5 -168t-103.5 -153t-151 -125t-202.5 -84.5t-257.5 -31h-587v135 q34 2 61.5 6.5t46 22t28.5 52.5t10 97v306l-187 -2v201z"/>
<glyph glyph-name="Ntilde" horiz-adv-x="1583" unicode="Ñ" d="M1365 -20h-174l-655 837q-52 67 -112 153h-2l3 -634q0 -28 -0.5 -55t-1.5 -51.5t-2.5 -44.5t-3.5 -33l154 6v-158h-467v135q34 2 61.5 6.5t46 22t28.5 52.5t10 97l-5 785q0 28 0.5 55t1.5 51.5t2.5 44.5t3.5 33l-154 -6v158h321l626 -790q52 -66 85.5 -113.5t57.5 -82.5 h2v650q0 28 0.5 55t1.5 51.5t2.5 44.5t3.5 33l-154 -6v158h466v-135q-35 -2 -62 -7t-45.5 -22t-28.5 -52t-10 -97v-1141zM659 1732q-39 0 -85 -22t-88 -83l-114 75q23 57 55.5 98.5t70 68t77 39.5t76.5 13q51 0 89.5 -16t72 -34.5t66.5 -34.5t72 -16q21 0 44 10t45.5 27.5 t42.5 42t35 53.5l116 -64q-27 -80 -61 -130t-71 -78.5t-73.5 -39t-67.5 -10.5q-48 0 -85 16t-71 34.5t-69 34.5t-77 16z"/>
<glyph glyph-name="Ograve" horiz-adv-x="1574" unicode="Ò" d="M72 717q0 86 19.5 175t59 172t99 156.5t139.5 128.5t180.5 86.5t221.5 31.5q124 0 225.5 -32t180.5 -87t136.5 -128.5t95.5 -156.5t56 -172t18 -174t-19.5 -173.5t-59 -171.5t-99 -157t-139.5 -129t-180 -87t-221 -32q-130 0 -233 31t-182.5 84.5t-136 126t-92 156 t-52.5 173.5t-17 179zM394 741q0 -65 9 -136t29 -140.5t52 -132.5t77.5 -110.5t106.5 -76t138 -28.5q71 0 126 24.5t96.5 66.5t70.5 98t47 118.5t26 129t8 128.5q0 138 -24 254.5t-74 201t-126 132t-180 47.5q-73 0 -129.5 -24.5t-99 -67.5t-71.5 -99.5t-47.5 -120.5 t-26.5 -131.5t-8 -132.5zM549 1745q-35 21 -59 54t-24 71q0 22 9 41t24 32.5t33.5 21.5t37.5 8q31 0 61.5 -14.5t54.5 -39.5l235 -242l-73 -101z"/>
<glyph glyph-name="Oacute" horiz-adv-x="1574" unicode="Ó" d="M72 717q0 86 19.5 175t59 172t99 156.5t139.5 128.5t180.5 86.5t221.5 31.5q124 0 225.5 -32t180.5 -87t136.5 -128.5t95.5 -156.5t56 -172t18 -174t-19.5 -173.5t-59 -171.5t-99 -157t-139.5 -129t-180 -87t-221 -32q-130 0 -233 31t-182.5 84.5t-136 126t-92 156 t-52.5 173.5t-17 179zM394 741q0 -65 9 -136t29 -140.5t52 -132.5t77.5 -110.5t106.5 -76t138 -28.5q71 0 126 24.5t96.5 66.5t70.5 98t47 118.5t26 129t8 128.5q0 138 -24 254.5t-74 201t-126 132t-180 47.5q-73 0 -129.5 -24.5t-99 -67.5t-71.5 -99.5t-47.5 -120.5 t-26.5 -131.5t-8 -132.5zM740 1576l-73 101l235 242q24 25 54 39.5t61 14.5q19 0 37.5 -7.5t33.5 -21.5t24 -33t9 -42q0 -38 -23.5 -70t-58.5 -54z"/>
<glyph glyph-name="Ocircumflex" horiz-adv-x="1574" unicode="Ô" d="M72 717q0 86 19.5 175t59 172t99 156.5t139.5 128.5t180.5 86.5t221.5 31.5q124 0 225.5 -32t180.5 -87t136.5 -128.5t95.5 -156.5t56 -172t18 -174t-19.5 -173.5t-59 -171.5t-99 -157t-139.5 -129t-180 -87t-221 -32q-130 0 -233 31t-182.5 84.5t-136 126t-92 156 t-52.5 173.5t-17 179zM394 741q0 -65 9 -136t29 -140.5t52 -132.5t77.5 -110.5t106.5 -76t138 -28.5q71 0 126 24.5t96.5 66.5t70.5 98t47 118.5t26 129t8 128.5q0 138 -24 254.5t-74 201t-126 132t-180 47.5q-73 0 -129.5 -24.5t-99 -67.5t-71.5 -99.5t-47.5 -120.5 t-26.5 -131.5t-8 -132.5zM785 1988h40l400 -307l-64 -95l-365 178l-374 -175l-55 92z"/>
<glyph glyph-name="Otilde" horiz-adv-x="1574" unicode="Õ" d="M72 717q0 86 19.5 175t59 172t99 156.5t139.5 128.5t180.5 86.5t221.5 31.5q124 0 225.5 -32t180.5 -87t136.5 -128.5t95.5 -156.5t56 -172t18 -174t-19.5 -173.5t-59 -171.5t-99 -157t-139.5 -129t-180 -87t-221 -32q-130 0 -233 31t-182.5 84.5t-136 126t-92 156 t-52.5 173.5t-17 179zM394 741q0 -65 9 -136t29 -140.5t52 -132.5t77.5 -110.5t106.5 -76t138 -28.5q71 0 126 24.5t96.5 66.5t70.5 98t47 118.5t26 129t8 128.5q0 138 -24 254.5t-74 201t-126 132t-180 47.5q-73 0 -129.5 -24.5t-99 -67.5t-71.5 -99.5t-47.5 -120.5 t-26.5 -131.5t-8 -132.5zM640 1732q-39 0 -85 -22t-88 -83l-114 75q23 57 55.5 98.5t70 68t77 39.5t76.5 13q51 0 89.5 -16t72 -34.5t66.5 -34.5t72 -16q21 0 44 10t45.5 27.5t42.5 42t35 53.5l116 -64q-27 -80 -61 -130t-71 -78.5t-73.5 -39t-67.5 -10.5q-48 0 -85 16 t-71 34.5t-69 34.5t-77 16z"/>
<glyph glyph-name="Odieresis" horiz-adv-x="1574" unicode="Ö" d="M72 717q0 86 19.5 175t59 172t99 156.5t139.5 128.5t180.5 86.5t221.5 31.5q124 0 225.5 -32t180.5 -87t136.5 -128.5t95.5 -156.5t56 -172t18 -174t-19.5 -173.5t-59 -171.5t-99 -157t-139.5 -129t-180 -87t-221 -32q-130 0 -233 31t-182.5 84.5t-136 126t-92 156 t-52.5 173.5t-17 179zM394 741q0 -65 9 -136t29 -140.5t52 -132.5t77.5 -110.5t106.5 -76t138 -28.5q71 0 126 24.5t96.5 66.5t70.5 98t47 118.5t26 129t8 128.5q0 138 -24 254.5t-74 201t-126 132t-180 47.5q-73 0 -129.5 -24.5t-99 -67.5t-71.5 -99.5t-47.5 -120.5 t-26.5 -131.5t-8 -132.5zM1114 1786q0 -32 -11 -60t-30 -49t-44 -33t-52 -12t-52 12t-43.5 33t-29.5 49t-11 60t11.5 60.5t30.5 50t44 34t52 12.5q28 0 53 -12.5t43 -34t28.5 -50t10.5 -60.5zM757 1786q0 -32 -11 -60t-30 -49t-44 -33t-52 -12t-52 12t-43.5 33t-29.5 49 t-11 60t11.5 60.5t30.5 50t44 34t52 12.5q28 0 53 -12.5t43 -34t28.5 -50t10.5 -60.5z"/>
<glyph glyph-name="multiply" horiz-adv-x="1147" unicode="×" d="M92 302l328 321l-325 322l161 152l322 -325l335 335l138 -149l-328 -329l333 -342l-157 -153l-333 342l-328 -325z"/>
<glyph glyph-name="Oslash" horiz-adv-x="1573" unicode="Ø" d="M1180 682q0 111 -15 206.5t-47 173.5l-516 -879q43 -33 92 -49.5t112 -16.5q71 0 126 24.5t96.5 66.5t70.5 98t47 118.5t26 129t8 128.5zM394 741q0 -47 4.5 -98.5t15 -103t27 -102.5t39.5 -97l521 896q-45 39 -100.5 60t-123.5 21q-73 0 -129.5 -24.5t-99 -67t-72 -99.5 t-48 -121t-26.5 -131.5t-8 -132.5zM72 717q0 86 19.5 175t59 172t99 156.5t139.5 128.5t180.5 86.5t221.5 31.5q90 0 166 -16.5t142 -46.5l121 207l162 -101l-124 -210q63 -57 109.5 -127t76.5 -145.5t44.5 -155t14.5 -155.5q0 -85 -19.5 -173.5t-59 -171.5t-99 -157 t-139.5 -129t-180 -87t-221 -32q-81 0 -151 12t-131 35l-127 -216l-152 102l118 202q-72 55 -123 126t-83.5 151t-48 166.5t-15.5 171.5z"/>
<glyph glyph-name="Ugrave" horiz-adv-x="1557" unicode="Ù" d="M1361 608q0 -177 -43.5 -299t-120 -198t-181 -110t-227.5 -34q-116 0 -204.5 22.5t-154 64t-110 99.5t-71.5 128.5t-38.5 151.5t-11.5 169v496q0 28 0.5 55t1.5 51.5t2.5 44.5t3.5 33l-154 -6v158h589v-135q-35 -2 -62 -7t-45.5 -22t-28.5 -52t-10 -97v-563 q0 -134 29.5 -218.5t77.5 -132.5t109.5 -66t125.5 -18q80 0 143.5 27t107.5 81.5t67 137t23 192.5v537q0 28 0.5 55t1.5 51.5t2.5 44.5t3.5 33l-154 -6v158h474v-135q-35 -2 -62 -7t-45.5 -22t-28.5 -52t-10 -97v-513zM647 1745q-35 21 -59 54t-24 71q0 22 9 41t24 32.5 t33.5 21.5t37.5 8q31 0 61.5 -14.5t54.5 -39.5l235 -242l-73 -101z"/>
<glyph glyph-name="Uacute" horiz-adv-x="1557" unicode="Ú" d="M1361 608q0 -177 -43.5 -299t-120 -198t-181 -110t-227.5 -34q-116 0 -204.5 22.5t-154 64t-110 99.5t-71.5 128.5t-38.5 151.5t-11.5 169v496q0 28 0.5 55t1.5 51.5t2.5 44.5t3.5 33l-154 -6v158h589v-135q-35 -2 -62 -7t-45.5 -22t-28.5 -52t-10 -97v-563 q0 -134 29.5 -218.5t77.5 -132.5t109.5 -66t125.5 -18q80 0 143.5 27t107.5 81.5t67 137t23 192.5v537q0 28 0.5 55t1.5 51.5t2.5 44.5t3.5 33l-154 -6v158h474v-135q-35 -2 -62 -7t-45.5 -22t-28.5 -52t-10 -97v-513zM753 1576l-73 101l235 242q24 25 54 39.5t61 14.5 q19 0 37.5 -7.5t33.5 -21.5t24 -33t9 -42q0 -38 -23.5 -70t-58.5 -54z"/>
<glyph glyph-name="Ucircumflex" horiz-adv-x="1557" unicode="Û" d="M1361 608q0 -177 -43.5 -299t-120 -198t-181 -110t-227.5 -34q-116 0 -204.5 22.5t-154 64t-110 99.5t-71.5 128.5t-38.5 151.5t-11.5 169v496q0 28 0.5 55t1.5 51.5t2.5 44.5t3.5 33l-154 -6v158h589v-135q-35 -2 -62 -7t-45.5 -22t-28.5 -52t-10 -97v-563 q0 -134 29.5 -218.5t77.5 -132.5t109.5 -66t125.5 -18q80 0 143.5 27t107.5 81.5t67 137t23 192.5v537q0 28 0.5 55t1.5 51.5t2.5 44.5t3.5 33l-154 -6v158h474v-135q-35 -2 -62 -7t-45.5 -22t-28.5 -52t-10 -97v-513zM824 1988h40l400 -307l-64 -95l-365 178l-374 -175 l-55 92z"/>
<glyph glyph-name="Udieresis" horiz-adv-x="1557" unicode="Ü" d="M1361 608q0 -177 -43.5 -299t-120 -198t-181 -110t-227.5 -34q-116 0 -204.5 22.5t-154 64t-110 99.5t-71.5 128.5t-38.5 151.5t-11.5 169v496q0 28 0.5 55t1.5 51.5t2.5 44.5t3.5 33l-154 -6v158h589v-135q-35 -2 -62 -7t-45.5 -22t-28.5 -52t-10 -97v-563 q0 -134 29.5 -218.5t77.5 -132.5t109.5 -66t125.5 -18q80 0 143.5 27t107.5 81.5t67 137t23 192.5v537q0 28 0.5 55t1.5 51.5t2.5 44.5t3.5 33l-154 -6v158h474v-135q-35 -2 -62 -7t-45.5 -22t-28.5 -52t-10 -97v-513zM1157 1786q0 -32 -11 -60t-30 -49t-44 -33t-52 -12 t-52 12t-43.5 33t-29.5 49t-11 60t11.5 60.5t30.5 50t44 34t52 12.5q28 0 53 -12.5t43 -34t28.5 -50t10.5 -60.5zM800 1786q0 -32 -11 -60t-30 -49t-44 -33t-52 -12t-52 12t-43.5 33t-29.5 49t-11 60t11.5 60.5t30.5 50t44 34t52 12.5q28 0 53 -12.5t43 -34t28.5 -50 t10.5 -60.5z"/>
<glyph glyph-name="Yacute" horiz-adv-x="1365" unicode="Ý" d="M858 568v-232q0 -28 -0.5 -55t-1.5 -51.5t-2.5 -44.5t-3.5 -33l164 6v-158h-598v135q34 1 61.5 6.5t46 22.5t28.5 52t10 97v179l-378 595q-15 24 -29 51t-25 53.5t-17.5 50t-6.5 40.5l-99 -6v158h603v-135q-6 0 -11.5 0.5t-11.5 0.5q-57 0 -90 -20.5t-33 -60.5 q1 -17 6 -36.5t19 -41.5l157 -257l21 -36t29.5 -52.5t30 -57.5t22.5 -51h3q10 23 34 72.5t62 127.5l106 209q8 16 21 41t28 52t30 52t29 41v2l-157 -8v158h452v-135q-36 -6 -65.5 -20t-56.5 -39.5t-53.5 -64.5t-56.5 -95zM665 1576l-73 101l235 242q24 25 54 39.5t61 14.5 q19 0 37.5 -7.5t33.5 -21.5t24 -33t9 -42q0 -38 -23.5 -70t-58.5 -54z"/>
<glyph glyph-name="Thorn" horiz-adv-x="1296" unicode="Þ" d="M666 1025h-67.5t-54.5 -1v-563q18 -2 37 -3t39 -1q169 0 248 74t79 223q0 66 -15 111.5t-39 75.5t-54.5 47t-62 25t-60.5 10t-50 2zM677 311q-42 -2 -72 -2.5t-61 0.5q-1 -49 -3 -91.5t-5 -65.5q61 3 154 6v-158h-588v135q34 2 61.5 7t46 22t28.5 52t10 97v785 q0 28 0.5 55t1.5 51.5t2.5 44.5t3.5 33l-154 -6v158h588v-135q-31 -2 -56 -6t-43 -17t-29.5 -38t-15.5 -70l123 2h12q128 0 236 -21t187 -72.5t119 -132.5t40 -193v-16q-2 -82 -39.5 -157t-110.5 -133t-182 -94t-254 -40z"/>
<glyph glyph-name="germandbls" horiz-adv-x="1579" unicode="ß" d="M1277 909q-41 3 -81 3q-41 0 -78 -5t-65.5 -17t-45.5 -33t-17 -53t13 -53.5t39 -38t65.5 -31.5t92.5 -33q78 -27 142.5 -60.5t111 -77t72 -99.5t25.5 -128q0 -80 -30 -139.5t-80 -98.5t-115.5 -58.5t-137.5 -19.5q-90 0 -152.5 22.5t-110.5 58.5h-2l7 -62h-156l-8 352 h132q4 -47 23.5 -88t54 -71t84.5 -47t116 -17q22 0 45 6.5t42 19.5t31.5 32t12.5 44q0 29 -14 50.5t-42 40.5t-71 37.5t-101 41.5q-64 25 -123 52t-104.5 65.5t-72.5 94t-27 138.5q0 51 14.5 101t45.5 92t80.5 73t118.5 45q0 112 -23.5 180t-59.5 104.5t-79 48t-81 11.5 q-48 0 -96 -16t-86.5 -59.5t-62.5 -120.5t-24 -199v-664q0 -15 -0.5 -36.5t-1.5 -46.5t-2.5 -51t-3.5 -49l143 6v-156h-547v133q43 0 67.5 13t36.5 37t15 57.5t3 74.5v543l-148 -5v171h151q12 153 60 253.5t122 160t170 84t203 24.5q36 0 88.5 -5t110 -22.5t114 -51.5 t102 -92.5t73.5 -145t28 -208.5q0 -52 -6 -112z"/>
<glyph glyph-name="agrave" horiz-adv-x="1074" unicode="à" d="M106 787q0 60 33.5 110t92 85.5t137.5 55t169 19.5t160.5 -23t119 -71t74 -122t25.5 -176q0 -52 -0.5 -91.5t-0.5 -76t-0.5 -76.5t-0.5 -92q0 -15 -0.5 -36t-1 -45t-2 -49.5t-3.5 -48.5l132 6v-156h-387q-4 29 -5.5 48.5t-2.5 45.5h-2q-70 -70 -146 -98.5t-157 -28.5 q-66 0 -118 20.5t-87.5 57.5t-54.5 86.5t-19 108.5q0 65 23 117t63.5 93t95.5 71t118.5 50t132.5 31t138 14v107q0 41 -7 75.5t-24 59.5t-45 39q-26 13 -64 13h-6q-42 -2 -78 -17t-62 -42q16 -17 20.5 -39t4.5 -37q0 -22 -8 -44.5t-25 -41t-43 -30.5t-62 -12q-30 1 -54 12.5 t-40 30t-24.5 43.5t-8.5 54zM631 471q-58 -6 -109 -21t-88.5 -39.5t-59 -58.5t-21.5 -78q1 -29 11 -49t25.5 -33t36 -19t42.5 -6q48 0 89 20t73 55zM295 1374q-24 23 -39 54.5t-15 63.5q0 20 8 40t22 35.5t34 25t43 9.5q35 0 68 -20.5t54 -54.5l168 -286l-94 -83z"/>
<glyph glyph-name="aacute" horiz-adv-x="1074" unicode="á" d="M106 787q0 60 33.5 110t92 85.5t137.5 55t169 19.5t160.5 -23t119 -71t74 -122t25.5 -176q0 -52 -0.5 -91.5t-0.5 -76t-0.5 -76.5t-0.5 -92q0 -15 -0.5 -36t-1 -45t-2 -49.5t-3.5 -48.5l132 6v-156h-387q-4 29 -5.5 48.5t-2.5 45.5h-2q-70 -70 -146 -98.5t-157 -28.5 q-66 0 -118 20.5t-87.5 57.5t-54.5 86.5t-19 108.5q0 65 23 117t63.5 93t95.5 71t118.5 50t132.5 31t138 14v107q0 41 -7 75.5t-24 59.5t-45 39q-26 13 -64 13h-6q-42 -2 -78 -17t-62 -42q16 -17 20.5 -39t4.5 -37q0 -22 -8 -44.5t-25 -41t-43 -30.5t-62 -12q-30 1 -54 12.5 t-40 30t-24.5 43.5t-8.5 54zM631 471q-58 -6 -109 -21t-88.5 -39.5t-59 -58.5t-21.5 -78q1 -29 11 -49t25.5 -33t36 -19t42.5 -6q48 0 89 20t73 55zM450 1158l-94 83l168 286q21 34 53.5 54.5t67.5 20.5q24 0 43.5 -9.5t34 -25t22.5 -35.5t8 -40q0 -32 -15 -63.5t-39 -54.5z "/>
<glyph glyph-name="acircumflex" horiz-adv-x="1074" unicode="â" d="M106 787q0 60 33.5 110t92 85.5t137.5 55t169 19.5t160.5 -23t119 -71t74 -122t25.5 -176q0 -52 -0.5 -91.5t-0.5 -76t-0.5 -76.5t-0.5 -92q0 -15 -0.5 -36t-1 -45t-2 -49.5t-3.5 -48.5l132 6v-156h-387q-4 29 -5.5 48.5t-2.5 45.5h-2q-70 -70 -146 -98.5t-157 -28.5 q-66 0 -118 20.5t-87.5 57.5t-54.5 86.5t-19 108.5q0 65 23 117t63.5 93t95.5 71t118.5 50t132.5 31t138 14v107q0 41 -7 75.5t-24 59.5t-45 39q-26 13 -64 13h-6q-42 -2 -78 -17t-62 -42q16 -17 20.5 -39t4.5 -37q0 -22 -8 -44.5t-25 -41t-43 -30.5t-62 -12q-30 1 -54 12.5 t-40 30t-24.5 43.5t-8.5 54zM631 471q-58 -6 -109 -21t-88.5 -39.5t-59 -58.5t-21.5 -78q1 -29 11 -49t25.5 -33t36 -19t42.5 -6q48 0 89 20t73 55zM513 1603h21l328 -347l-88 -105l-261 214h-2l-262 -199l-86 98z"/>
<glyph glyph-name="atilde" horiz-adv-x="1074" unicode="ã" d="M106 787q0 60 33.5 110t92 85.5t137.5 55t169 19.5t160.5 -23t119 -71t74 -122t25.5 -176q0 -52 -0.5 -91.5t-0.5 -76t-0.5 -76.5t-0.5 -92q0 -15 -0.5 -36t-1 -45t-2 -49.5t-3.5 -48.5l132 6v-156h-387q-4 29 -5.5 48.5t-2.5 45.5h-2q-70 -70 -146 -98.5t-157 -28.5 q-66 0 -118 20.5t-87.5 57.5t-54.5 86.5t-19 108.5q0 65 23 117t63.5 93t95.5 71t118.5 50t132.5 31t138 14v107q0 41 -7 75.5t-24 59.5t-45 39q-26 13 -64 13h-6q-42 -2 -78 -17t-62 -42q16 -17 20.5 -39t4.5 -37q0 -22 -8 -44.5t-25 -41t-43 -30.5t-62 -12q-30 1 -54 12.5 t-40 30t-24.5 43.5t-8.5 54zM631 471q-58 -6 -109 -21t-88.5 -39.5t-59 -58.5t-21.5 -78q1 -29 11 -49t25.5 -33t36 -19t42.5 -6q48 0 89 20t73 55zM386 1322q-12 0 -27.5 -4t-32.5 -13.5t-34.5 -25.5t-33.5 -40l-114 68q16 46 43 85t59 66.5t67.5 43t69.5 15.5q48 0 79 -12 t57 -27t51.5 -27t62.5 -12q36 0 68.5 27.5t58.5 75.5l116 -59q-21 -64 -50 -109.5t-62 -74.5t-67 -42.5t-64 -13.5q-41 0 -73.5 12.5t-61 27t-55.5 27t-57 12.5z"/>
<glyph glyph-name="adieresis" horiz-adv-x="1074" unicode="ä" d="M106 787q0 60 33.5 110t92 85.5t137.5 55t169 19.5t160.5 -23t119 -71t74 -122t25.5 -176q0 -52 -0.5 -91.5t-0.5 -76t-0.5 -76.5t-0.5 -92q0 -15 -0.5 -36t-1 -45t-2 -49.5t-3.5 -48.5l132 6v-156h-387q-4 29 -5.5 48.5t-2.5 45.5h-2q-70 -70 -146 -98.5t-157 -28.5 q-66 0 -118 20.5t-87.5 57.5t-54.5 86.5t-19 108.5q0 65 23 117t63.5 93t95.5 71t118.5 50t132.5 31t138 14v107q0 41 -7 75.5t-24 59.5t-45 39q-26 13 -64 13h-6q-42 -2 -78 -17t-62 -42q16 -17 20.5 -39t4.5 -37q0 -22 -8 -44.5t-25 -41t-43 -30.5t-62 -12q-30 1 -54 12.5 t-40 30t-24.5 43.5t-8.5 54zM631 471q-58 -6 -109 -21t-88.5 -39.5t-59 -58.5t-21.5 -78q1 -29 11 -49t25.5 -33t36 -19t42.5 -6q48 0 89 20t73 55zM822 1382q0 -32 -11 -60t-29.5 -49t-43.5 -33t-52 -12q-28 0 -52.5 12t-43 33t-29.5 49t-11 60t11 60.5t30 49.5t44 33.5 t52 12.5q29 0 54 -12.5t43 -33.5t28 -49.5t10 -60.5zM466 1382q0 -32 -11 -60t-29.5 -49t-43.5 -33t-52 -12q-28 0 -52.5 12t-43 33t-29.5 49t-11 60t11 60.5t30 49.5t44 33.5t52 12.5q29 0 54 -12.5t43 -33.5t28 -49.5t10 -60.5z"/>
<glyph glyph-name="aring" horiz-adv-x="1074" unicode="å" d="M106 787q0 60 33.5 110t92 85.5t137.5 55t169 19.5t160.5 -23t119 -71t74 -122t25.5 -176q0 -52 -0.5 -91.5t-0.5 -76t-0.5 -76.5t-0.5 -92q0 -15 -0.5 -36t-1 -45t-2 -49.5t-3.5 -48.5l132 6v-156h-387q-4 29 -5.5 48.5t-2.5 45.5h-2q-70 -70 -146 -98.5t-157 -28.5 q-66 0 -118 20.5t-87.5 57.5t-54.5 86.5t-19 108.5q0 65 23 117t63.5 93t95.5 71t118.5 50t132.5 31t138 14v107q0 41 -7 75.5t-24 59.5t-45 39q-26 13 -64 13h-6q-42 -2 -78 -17t-62 -42q16 -17 20.5 -39t4.5 -37q0 -22 -8 -44.5t-25 -41t-43 -30.5t-62 -12q-30 1 -54 12.5 t-40 30t-24.5 43.5t-8.5 54zM631 471q-58 -6 -109 -21t-88.5 -39.5t-59 -58.5t-21.5 -78q1 -29 11 -49t25.5 -33t36 -19t42.5 -6q48 0 89 20t73 55zM524 1628q43 0 86.5 -14t78 -42.5t56.5 -72t22 -102.5q0 -56 -21 -101.5t-55.5 -77t-77.5 -48.5t-86 -17q-44 0 -87.5 15.5 t-78 45.5t-56.5 74t-22 101q0 51 20 94.5t53.5 76t77 50.5t90.5 18zM523 1505q-26 -1 -48 -24t-22 -75q0 -65 23.5 -96.5t59.5 -31.5q26 0 47 25t21 73q0 70 -24 99.5t-57 29.5z"/>
<glyph glyph-name="ae" horiz-adv-x="1577" unicode="æ" d="M1090 911q-42 0 -71 -18.5t-48 -50t-29 -73t-14 -86.5h297q-2 63 -14 106.5t-30.5 70.5t-42 39t-48.5 12zM632 471q-59 -6 -110 -21t-89.5 -39.5t-60.5 -58.5t-22 -78q1 -29 12 -49t28.5 -33t39 -19t43.5 -6q48 0 91.5 21.5t75.5 56.5q-5 60 -6 115.5t-2 110.5zM343 -33 q-66 0 -118.5 20.5t-89 57.5t-56 86.5t-19.5 108.5q0 65 23.5 117.5t64.5 93t96 70.5t118.5 50t133 31t137.5 14v111q0 41 -8 75t-25 58t-44 37.5t-65 13.5q-42 -2 -81 -14.5t-65 -39.5q16 -17 20.5 -42t4.5 -40q0 -22 -8 -44.5t-25 -41t-43 -30.5t-62 -12q-30 1 -54 12.5 t-40 30t-24.5 43.5t-8.5 54q0 57 31.5 106t87.5 85.5t132.5 57.5t166.5 21q105 0 176.5 -38.5t99.5 -134.5h2q28 47 60 80t71 53.5t86 30t106 9.5q69 -1 135.5 -27.5t119 -86t85 -155.5t32.5 -237l-581 -12q0 -84 11 -155.5t39 -123t76 -81t123 -29.5q31 0 65.5 8t70.5 26 t73 47.5t72 72.5l92 -87q-55 -79 -113 -128t-115.5 -76t-113.5 -36.5t-108 -9.5q-57 0 -106 14t-90 37.5t-74 54.5t-59 66q-47 -54 -99 -87.5t-105.5 -52.5t-107 -25.5t-103.5 -6.5z"/>
<glyph glyph-name="ccedilla" horiz-adv-x="1065" unicode="ç" d="M642 -109q31 -1 58.5 -9.5t47.5 -26t31.5 -44t11.5 -63.5q0 -48 -23.5 -85.5t-62 -66.5t-88 -50.5t-101 -36.5t-101.5 -24.5t-89 -14.5l-16 106q16 3 40.5 8t52 12.5t55 17.5t49.5 23.5t35.5 30.5t13.5 38q0 27 -17 38t-40 11t-45.5 -8t-36.5 -19l-76 32l57 235 q-73 23 -134 66.5t-105.5 106.5t-69 144t-24.5 178q0 115 39 218.5t109 180.5t168 122.5t217 45.5q97 0 171 -24t123.5 -63t74.5 -89.5t25 -104.5q0 -31 -9.5 -59t-28 -49t-45.5 -33t-61 -12q-38 0 -63 13t-41 32.5t-22.5 43t-6.5 44.5q0 18 6 43.5t19 45.5q-11 20 -28.5 33 t-37 21t-39 11t-34.5 3q-52 0 -95 -23.5t-74.5 -70t-49 -114.5t-17.5 -157q0 -78 14.5 -150t47.5 -127t87 -88t133 -33q41 0 82.5 11.5t79.5 32t72.5 49.5t61.5 64l94 -91q-56 -77 -115.5 -125.5t-119 -75.5t-118.5 -37t-115 -10q-8 0 -14.5 0.5t-13.5 0.5l-41 -110h2 q13 7 31 13t37.5 10t38 6.5t33.5 2.5z"/>
<glyph glyph-name="egrave" horiz-adv-x="1103" unicode="è" d="M1037 551l-673 -12q0 -84 15.5 -155.5t49.5 -123t89 -81t135 -29.5q31 0 69 8t77.5 26t79.5 47.5t75 72.5l92 -87q-55 -79 -117 -128t-124.5 -76t-123 -36.5t-112.5 -9.5q-113 0 -206 38t-160 109t-103.5 171t-36.5 225q0 108 36.5 206.5t103.5 174.5t161.5 121t210.5 45 q57 0 113.5 -10t108 -33.5t96 -61.5t76.5 -94q33 -56 51 -132q18 -72 17 -165v-10zM585 913q-45 0 -80.5 -17t-61.5 -47t-42.5 -72.5t-23.5 -93.5h377q-2 63 -15 107t-35.5 71.5t-52.5 39.5t-66 12zM324 1374q-24 23 -39 54.5t-15 63.5q0 20 8 40t22 35.5t34 25t43 9.5 q35 0 68 -20.5t54 -54.5l168 -286l-94 -83z"/>
<glyph glyph-name="eacute" horiz-adv-x="1103" unicode="é" d="M1037 551l-673 -12q0 -84 15.5 -155.5t49.5 -123t89 -81t135 -29.5q31 0 69 8t77.5 26t79.5 47.5t75 72.5l92 -87q-55 -79 -117 -128t-124.5 -76t-123 -36.5t-112.5 -9.5q-113 0 -206 38t-160 109t-103.5 171t-36.5 225q0 108 36.5 206.5t103.5 174.5t161.5 121t210.5 45 q57 0 113.5 -10t108 -33.5t96 -61.5t76.5 -94q33 -56 51 -132q18 -72 17 -165v-10zM585 913q-45 0 -80.5 -17t-61.5 -47t-42.5 -72.5t-23.5 -93.5h377q-2 63 -15 107t-35.5 71.5t-52.5 39.5t-66 12zM516 1158l-94 83l168 286q21 34 53.5 54.5t67.5 20.5q24 0 43.5 -9.5 t34 -25t22.5 -35.5t8 -40q0 -32 -15 -63.5t-39 -54.5z"/>
<glyph glyph-name="ecircumflex" horiz-adv-x="1103" unicode="ê" d="M1037 551l-673 -12q0 -84 15.5 -155.5t49.5 -123t89 -81t135 -29.5q31 0 69 8t77.5 26t79.5 47.5t75 72.5l92 -87q-55 -79 -117 -128t-124.5 -76t-123 -36.5t-112.5 -9.5q-113 0 -206 38t-160 109t-103.5 171t-36.5 225q0 108 36.5 206.5t103.5 174.5t161.5 121t210.5 45 q57 0 113.5 -10t108 -33.5t96 -61.5t76.5 -94q33 -56 51 -132q18 -72 17 -165v-10zM585 913q-45 0 -80.5 -17t-61.5 -47t-42.5 -72.5t-23.5 -93.5h377q-2 63 -15 107t-35.5 71.5t-52.5 39.5t-66 12zM579 1603h21l328 -347l-88 -105l-261 214h-2l-262 -199l-86 98z"/>
<glyph glyph-name="edieresis" horiz-adv-x="1103" unicode="ë" d="M1037 551l-673 -12q0 -84 15.5 -155.5t49.5 -123t89 -81t135 -29.5q31 0 69 8t77.5 26t79.5 47.5t75 72.5l92 -87q-55 -79 -117 -128t-124.5 -76t-123 -36.5t-112.5 -9.5q-113 0 -206 38t-160 109t-103.5 171t-36.5 225q0 108 36.5 206.5t103.5 174.5t161.5 121t210.5 45 q57 0 113.5 -10t108 -33.5t96 -61.5t76.5 -94q33 -56 51 -132q18 -72 17 -165v-10zM585 913q-45 0 -80.5 -17t-61.5 -47t-42.5 -72.5t-23.5 -93.5h377q-2 63 -15 107t-35.5 71.5t-52.5 39.5t-66 12zM898 1382q0 -32 -11 -60t-29.5 -49t-43.5 -33t-52 -12q-28 0 -52.5 12 t-43 33t-29.5 49t-11 60t11 60.5t30 49.5t44 33.5t52 12.5q29 0 54 -12.5t43 -33.5t28 -49.5t10 -60.5zM542 1382q0 -32 -11 -60t-29.5 -49t-43.5 -33t-52 -12q-28 0 -52.5 12t-43 33t-29.5 49t-11 60t11 60.5t30 49.5t44 33.5t52 12.5q29 0 54 -12.5t43 -33.5t28 -49.5 t10 -60.5z"/>
<glyph glyph-name="igrave" horiz-adv-x="670" unicode="ì" d="M495 329q0 -15 -0.5 -36t-1.5 -45t-2.5 -49.5t-3.5 -48.5l133 6v-156h-537v133q43 0 67.5 13t36.5 37t15 57.5t3 74.5v340q0 37 1.5 85t6.5 94l-144 -6v155q71 0 125.5 6t93 15t62 19.5t34.5 20.5h111v-715zM84 1374q-24 23 -39 54.5t-15 63.5q0 20 8 40t22 35.5t34 25 t43 9.5q35 0 68 -20.5t54 -54.5l168 -286l-94 -83z"/>
<glyph glyph-name="iacute" horiz-adv-x="670" unicode="í" d="M495 329q0 -15 -0.5 -36t-1.5 -45t-2.5 -49.5t-3.5 -48.5l133 6v-156h-537v133q43 0 67.5 13t36.5 37t15 57.5t3 74.5v340q0 37 1.5 85t6.5 94l-144 -6v155q71 0 125.5 6t93 15t62 19.5t34.5 20.5h111v-715zM312 1158l-94 83l168 286q21 34 53.5 54.5t67.5 20.5 q24 0 43.5 -9.5t34 -25t22.5 -35.5t8 -40q0 -32 -15 -63.5t-39 -54.5z"/>
<glyph glyph-name="icircumflex" horiz-adv-x="669" unicode="î" d="M495 329q0 -15 -0.5 -36t-1.5 -45t-2.5 -49.5t-3.5 -48.5l133 6v-156h-537v133q43 0 67.5 13t36.5 37t15 57.5t3 74.5v340q0 37 1.5 85t6.5 94l-144 -6v155q71 0 125.5 6t93 15t62 19.5t34.5 20.5h111v-715zM338 1603h21l298 -347l-88 -105l-231 214h-2l-232 -199l-86 98 z"/>
<glyph glyph-name="idieresis" horiz-adv-x="670" unicode="ï" d="M637 1382q0 -32 -10 -60t-27 -49t-41 -33t-51 -12q-28 0 -51.5 12t-41 33t-27 49t-9.5 60t10 60.5t27.5 49.5t41.5 33.5t51 12.5q29 0 53 -12.5t40.5 -33.5t25.5 -49.5t9 -60.5zM301 1382q0 -32 -10 -60t-27 -49t-41 -33t-51 -12q-28 0 -51.5 12t-41 33t-27 49t-9.5 60 t10 60.5t27.5 49.5t41.5 33.5t51 12.5q29 0 53 -12.5t40.5 -33.5t25.5 -49.5t9 -60.5zM495 329q0 -15 -0.5 -36t-1.5 -45t-2.5 -49.5t-3.5 -48.5l133 6v-156h-537v133q43 0 67.5 13t36.5 37t15 57.5t3 74.5v340q0 37 1.5 85t6.5 94l-144 -6v155q71 0 125.5 6t93 15t62 19.5 t34.5 20.5h111v-715z"/>
<glyph glyph-name="eth" horiz-adv-x="1110" unicode="ð" d="M751 490q0 60 -10 124.5t-33.5 118t-62 88t-95.5 34.5q-47 0 -84 -29t-62.5 -77.5t-39 -111.5t-13.5 -132q0 -86 15.5 -153.5t42.5 -114t63.5 -71t78.5 -24.5q41 0 77.5 22t63.5 66t43 109t16 151zM241 1224l100 117q-38 22 -85.5 38t-102.5 27l30 150q91 -8 159 -30 t116 -45l105 137l119 -106l-87 -103q94 -63 171 -151.5t132.5 -198.5t86 -237.5t30.5 -268.5q0 -120 -29.5 -226.5t-89 -186.5t-149 -126.5t-210.5 -46.5q-101 0 -187 33.5t-149 97.5t-98.5 158t-35.5 215q0 99 28.5 196.5t86.5 174.5t146 125t207 48q18 0 40 -2.5t46 -8.5 t48 -17.5t46 -29.5h2q-11 40 -36.5 84.5t-58.5 86t-69.5 76.5t-69.5 56l-118 -145z"/>
<glyph glyph-name="ntilde" horiz-adv-x="1303" unicode="ñ" d="M1139 329q0 -15 -0.5 -36t-1.5 -45t-2.5 -49.5t-3.5 -48.5l133 6v-156h-537v133q43 0 67.5 13t36.5 37t15 57.5t3 74.5l-1 292q-1 135 -41 198t-125 63q-53 0 -102.5 -22t-84.5 -53v-464q0 -15 -0.5 -36t-1.5 -45t-2.5 -49.5t-3.5 -48.5l133 6v-156h-537v133 q43 0 67.5 13t36.5 37t15 57.5t3 74.5v345q0 37 1.5 82.5t6.5 91.5l-144 -6v155q71 0 125.5 6t93 15t62 19.5t34.5 20.5h101l9 -101h3q30 23 68.5 44t79 36.5t79 24.5t69.5 9q94 0 159.5 -26.5t107 -81.5t60.5 -141t19 -204v-275zM526 1322q-12 0 -27.5 -4t-32.5 -13.5 t-34.5 -25.5t-33.5 -40l-114 68q16 46 43 85t59 66.5t67.5 43t69.5 15.5q48 0 79 -12t57 -27t51.5 -27t62.5 -12q36 0 68.5 27.5t58.5 75.5l116 -59q-21 -64 -50 -109.5t-62 -74.5t-67 -42.5t-64 -13.5q-41 0 -73.5 12.5t-61 27t-55.5 27t-57 12.5z"/>
<glyph glyph-name="ograve" horiz-adv-x="1159" unicode="ò" d="M579 1057q110 0 204.5 -36t163.5 -104t108.5 -165.5t39.5 -220.5q0 -129 -37.5 -233.5t-105 -178t-161.5 -113t-206 -39.5q-111 0 -206.5 36.5t-165.5 104t-110 164t-40 217.5q0 127 41 232t111.5 179.5t164.5 115.5t199 41zM575 913q-60 -2 -100 -34.5t-65 -84.5 t-35.5 -117.5t-10.5 -132.5q0 -79 12.5 -156.5t40 -138.5t71 -99t105.5 -38q61 1 99.5 34t61 85.5t31 117.5t8.5 131q0 76 -10.5 153.5t-36 139.5t-67 101t-104.5 39zM340 1374q-24 23 -39 54.5t-15 63.5q0 20 8 40t22 35.5t34 25t43 9.5q35 0 68 -20.5t54 -54.5l168 -286 l-94 -83z"/>
<glyph glyph-name="oacute" horiz-adv-x="1159" unicode="ó" d="M579 1057q110 0 204.5 -36t163.5 -104t108.5 -165.5t39.5 -220.5q0 -129 -37.5 -233.5t-105 -178t-161.5 -113t-206 -39.5q-111 0 -206.5 36.5t-165.5 104t-110 164t-40 217.5q0 127 41 232t111.5 179.5t164.5 115.5t199 41zM575 913q-60 -2 -100 -34.5t-65 -84.5 t-35.5 -117.5t-10.5 -132.5q0 -79 12.5 -156.5t40 -138.5t71 -99t105.5 -38q61 1 99.5 34t61 85.5t31 117.5t8.5 131q0 76 -10.5 153.5t-36 139.5t-67 101t-104.5 39zM534 1158l-94 83l168 286q21 34 53.5 54.5t67.5 20.5q24 0 43.5 -9.5t34 -25t22.5 -35.5t8 -40 q0 -32 -15 -63.5t-39 -54.5z"/>
<glyph glyph-name="ocircumflex" horiz-adv-x="1159" unicode="ô" d="M579 1057q110 0 204.5 -36t163.5 -104t108.5 -165.5t39.5 -220.5q0 -129 -37.5 -233.5t-105 -178t-161.5 -113t-206 -39.5q-111 0 -206.5 36.5t-165.5 104t-110 164t-40 217.5q0 127 41 232t111.5 179.5t164.5 115.5t199 41zM575 913q-60 -2 -100 -34.5t-65 -84.5 t-35.5 -117.5t-10.5 -132.5q0 -79 12.5 -156.5t40 -138.5t71 -99t105.5 -38q61 1 99.5 34t61 85.5t31 117.5t8.5 131q0 76 -10.5 153.5t-36 139.5t-67 101t-104.5 39zM587 1603h21l328 -347l-88 -105l-261 214h-2l-262 -199l-86 98z"/>
<glyph glyph-name="otilde" horiz-adv-x="1159" unicode="õ" d="M579 1057q110 0 204.5 -36t163.5 -104t108.5 -165.5t39.5 -220.5q0 -129 -37.5 -233.5t-105 -178t-161.5 -113t-206 -39.5q-111 0 -206.5 36.5t-165.5 104t-110 164t-40 217.5q0 127 41 232t111.5 179.5t164.5 115.5t199 41zM575 913q-60 -2 -100 -34.5t-65 -84.5 t-35.5 -117.5t-10.5 -132.5q0 -79 12.5 -156.5t40 -138.5t71 -99t105.5 -38q61 1 99.5 34t61 85.5t31 117.5t8.5 131q0 76 -10.5 153.5t-36 139.5t-67 101t-104.5 39zM448 1322q-12 0 -27.5 -4t-32.5 -13.5t-34.5 -25.5t-33.5 -40l-114 68q16 46 43 85t59 66.5t67.5 43 t69.5 15.5q48 0 79 -12t57 -27t51.5 -27t62.5 -12q36 0 68.5 27.5t58.5 75.5l116 -59q-21 -64 -50 -109.5t-62 -74.5t-67 -42.5t-64 -13.5q-41 0 -73.5 12.5t-61 27t-55.5 27t-57 12.5z"/>
<glyph glyph-name="odieresis" horiz-adv-x="1159" unicode="ö" d="M579 1057q110 0 204.5 -36t163.5 -104t108.5 -165.5t39.5 -220.5q0 -129 -37.5 -233.5t-105 -178t-161.5 -113t-206 -39.5q-111 0 -206.5 36.5t-165.5 104t-110 164t-40 217.5q0 127 41 232t111.5 179.5t164.5 115.5t199 41zM575 913q-60 -2 -100 -34.5t-65 -84.5 t-35.5 -117.5t-10.5 -132.5q0 -79 12.5 -156.5t40 -138.5t71 -99t105.5 -38q61 1 99.5 34t61 85.5t31 117.5t8.5 131q0 76 -10.5 153.5t-36 139.5t-67 101t-104.5 39zM896 1382q0 -32 -11 -60t-29.5 -49t-43.5 -33t-52 -12q-28 0 -52.5 12t-43 33t-29.5 49t-11 60t11 60.5 t30 49.5t44 33.5t52 12.5q29 0 54 -12.5t43 -33.5t28 -49.5t10 -60.5zM540 1382q0 -32 -11 -60t-29.5 -49t-43.5 -33t-52 -12q-28 0 -52.5 12t-43 33t-29.5 49t-11 60t11 60.5t30 49.5t44 33.5t52 12.5q29 0 54 -12.5t43 -33.5t28 -49.5t10 -60.5z"/>
<glyph glyph-name="divide" horiz-adv-x="575" unicode="÷" d="M436 951q0 -33 -10.5 -62t-29 -50.5t-45.5 -34t-60 -12.5q-34 0 -62 12.5t-48 34t-31 50.5t-11 62t12 62.5t32.5 51.5t47.5 34.5t57 12.5q32 0 59 -12.5t47 -34.5t31 -51.5t11 -62.5zM436 249q0 -33 -10.5 -62t-29 -50.5t-45.5 -34t-60 -12.5q-34 0 -62 12.5t-48 34 t-31 50.5t-11 62t12 62.5t32.5 51.5t47.5 34.5t57 12.5q32 0 59 -12.5t47 -34.5t31 -51.5t11 -62.5z"/>
<glyph glyph-name="oslash" horiz-adv-x="1159" unicode="ø" d="M793 480q0 46 -3.5 94t-11.5 93h-2l-315 -492q26 -31 58 -47t74 -16q61 0 99.5 33t61 86t31 118.5t8.5 130.5zM575 913q-60 -2 -100 -34.5t-65 -84.5t-35.5 -117.5t-10.5 -132.5q0 -49 4 -97.5t15 -96.5h2l318 500q-24 31 -55 47t-73 16zM579 1057q125 0 227 -46l106 165 l137 -88l-107 -166q72 -69 112.5 -167t40.5 -224q0 -129 -37.5 -233.5t-105 -178t-161.5 -113t-206 -39.5q-63 0 -120.5 11.5t-108.5 33.5l-118 -182l-126 96l110 172q-75 69 -117 166.5t-42 224.5t41 232t111.5 179.5t164.5 115.5t199 41z"/>
<glyph glyph-name="ugrave" horiz-adv-x="1266" unicode="ù" d="M1091 329q-1 -57 -2 -81t-2.5 -49.5t-3.5 -48.5l133 6v-156h-389l-11 107h-2q-31 -27 -64.5 -52.5t-71 -45t-80 -31t-91.5 -11.5q-91 0 -155.5 26.5t-105.5 81.5t-60 140.5t-19 204.5v235q0 37 1.5 85t6.5 94l-144 -6v155q71 0 125.5 6t93 15t62 19.5t34.5 20.5h112v-627 q0 -135 34.5 -198t112.5 -63q25 0 52 7.5t53 21t49.5 31.5t41.5 38v401q0 37 1.5 85t6.5 94l-144 -6v155q71 0 125 6t92.5 15t62 19.5t34.5 20.5h112v-715zM404 1374q-24 23 -39 54.5t-15 63.5q0 20 8 40t22 35.5t34 25t43 9.5q35 0 68 -20.5t54 -54.5l168 -286l-94 -83z "/>
<glyph glyph-name="uacute" horiz-adv-x="1266" unicode="ú" d="M1091 329q-1 -57 -2 -81t-2.5 -49.5t-3.5 -48.5l133 6v-156h-389l-11 107h-2q-31 -27 -64.5 -52.5t-71 -45t-80 -31t-91.5 -11.5q-91 0 -155.5 26.5t-105.5 81.5t-60 140.5t-19 204.5v235q0 37 1.5 85t6.5 94l-144 -6v155q71 0 125.5 6t93 15t62 19.5t34.5 20.5h112v-627 q0 -135 34.5 -198t112.5 -63q25 0 52 7.5t53 21t49.5 31.5t41.5 38v401q0 37 1.5 85t6.5 94l-144 -6v155q71 0 125 6t92.5 15t62 19.5t34.5 20.5h112v-715zM630 1158l-94 83l168 286q21 34 53.5 54.5t67.5 20.5q24 0 43.5 -9.5t34 -25t22.5 -35.5t8 -40q0 -32 -15 -63.5 t-39 -54.5z"/>
<glyph glyph-name="ucircumflex" horiz-adv-x="1266" unicode="û" d="M1091 329q-1 -57 -2 -81t-2.5 -49.5t-3.5 -48.5l133 6v-156h-389l-11 107h-2q-31 -27 -64.5 -52.5t-71 -45t-80 -31t-91.5 -11.5q-91 0 -155.5 26.5t-105.5 81.5t-60 140.5t-19 204.5v235q0 37 1.5 85t6.5 94l-144 -6v155q71 0 125.5 6t93 15t62 19.5t34.5 20.5h112v-627 q0 -135 34.5 -198t112.5 -63q25 0 52 7.5t53 21t49.5 31.5t41.5 38v401q0 37 1.5 85t6.5 94l-144 -6v155q71 0 125 6t92.5 15t62 19.5t34.5 20.5h112v-715zM619 1603h21l328 -347l-88 -105l-261 214h-2l-262 -199l-86 98z"/>
<glyph glyph-name="udieresis" horiz-adv-x="1266" unicode="ü" d="M1091 329q-1 -57 -2 -81t-2.5 -49.5t-3.5 -48.5l133 6v-156h-389l-11 107h-2q-31 -27 -64.5 -52.5t-71 -45t-80 -31t-91.5 -11.5q-91 0 -155.5 26.5t-105.5 81.5t-60 140.5t-19 204.5v235q0 37 1.5 85t6.5 94l-144 -6v155q71 0 125.5 6t93 15t62 19.5t34.5 20.5h112v-627 q0 -135 34.5 -198t112.5 -63q25 0 52 7.5t53 21t49.5 31.5t41.5 38v401q0 37 1.5 85t6.5 94l-144 -6v155q71 0 125 6t92.5 15t62 19.5t34.5 20.5h112v-715zM942 1382q0 -32 -11 -60t-29.5 -49t-43.5 -33t-52 -12q-28 0 -52.5 12t-43 33t-29.5 49t-11 60t11 60.5t30 49.5 t44 33.5t52 12.5q29 0 54 -12.5t43 -33.5t28 -49.5t10 -60.5zM586 1382q0 -32 -11 -60t-29.5 -49t-43.5 -33t-52 -12q-28 0 -52.5 12t-43 33t-29.5 49t-11 60t11 60.5t30 49.5t44 33.5t52 12.5q29 0 54 -12.5t43 -33.5t28 -49.5t10 -60.5z"/>
<glyph glyph-name="yacute" horiz-adv-x="1128" unicode="ý" d="M657 274q9 26 22 68t29.5 95.5t36 116t41.5 129.5q6 19 15 44.5t20.5 52.5t24.5 52t27 42v2l-117 -8v156h364v-131q-64 -16 -105.5 -78.5t-73.5 -155.5l-257 -731q-43 -125 -82 -216.5t-82 -150.5t-95 -87.5t-121 -28.5q-40 0 -74 12t-59 34t-39.5 53t-14.5 69 q0 28 10 53.5t27.5 45t42 31t53.5 11.5q21 0 40 -8.5t33.5 -23.5t23 -36t8.5 -46q0 -13 -3 -28v-2q21 0 44 28.5t46.5 75t45 107t39.5 125.5l-325 649q-29 57 -47 99t-28.5 73.5t-15 56.5t-7.5 48l-94 -4v156h510v-131q-48 -6 -67 -28t-19 -52q0 -19 6 -39.5t15 -40.5 l200 -459h2zM593 1158l-94 83l168 286q21 34 53.5 54.5t67.5 20.5q24 0 43.5 -9.5t34 -25t22.5 -35.5t8 -40q0 -32 -15 -63.5t-39 -54.5z"/>
<glyph glyph-name="thorn" horiz-adv-x="1173" unicode="þ" d="M128 1157q0 37 1.5 85t6.5 94l-144 -6v155q71 0 125.5 6t93 15t62 19.5t34.5 20.5h111v-600h3q70 62 139.5 86.5t133.5 24.5q92 0 168 -36.5t130.5 -104t84.5 -163.5t30 -215q0 -124 -36.5 -228.5t-103 -180.5t-160 -119t-207.5 -43q-56 0 -100 11.5t-82 25.5v-197 q0 -15 -0.5 -36t-1.5 -45t-2.5 -49.5t-3.5 -48.5l133 6v-156h-537v133q43 0 67.5 13t36.5 37t15 57.5t3 74.5v1364zM583 872q-51 -2 -94.5 -26t-70.5 -63v-625q10 -8 26.5 -15t36 -12t41.5 -8t44 -3q71 1 117.5 33.5t74 86t38.5 123t11 144.5q0 70 -13 137t-40 118t-68 80.5 t-96 29.5h-7z"/>
<glyph glyph-name="dotlessi" horiz-adv-x="670" unicode="ı" d="M495 329q0 -15 -0.5 -36t-1.5 -45t-2.5 -49.5t-3.5 -48.5l133 6v-156h-537v133q43 0 67.5 13t36.5 37t15 57.5t3 74.5v340q0 37 1.5 85t6.5 94l-144 -6v155q71 0 125.5 6t93 15t62 19.5t34.5 20.5h111v-715z"/>
<glyph glyph-name="OE" horiz-adv-x="2105" unicode="Œ" d="M825 133q13 -1 25.5 -1.5t25.5 -0.5q109 0 199 36v1084q-54 36 -122 51.5t-144 15.5q-71 0 -129.5 -22.5t-104.5 -62.5t-80 -94.5t-56 -119t-33 -136t-11 -145.5q0 -132 28.5 -240.5t83 -187t134.5 -124.5t184 -53zM1075 0q-75 -21 -154 -27t-146 -6q-158 3 -287.5 59.5 t-221.5 153t-142.5 227.5t-50.5 284q0 93 18.5 187t57 180t98 161t141.5 130t187.5 86.5t235.5 31.5q28 0 61 -2t67.5 -5.5t69 -10t66.5 -15.5h879l12 -397h-135q0 80 -22 131.5t-56.5 81t-77 40.5t-83.5 11l-84 -2q-32 -1 -57.5 -6.5t-43 -23.5t-27 -53t-9.5 -95v-307h241 l-9 177h158v-498h-135q0 60 -13.5 95.5t-37 54t-55.5 24.5t-69 6l-80 -1v-336q0 -28 -0.5 -54.5t-1.5 -50.5t-2.5 -43.5t-3.5 -32.5l275 1q45 0 90 15t80 49.5t57 91t22 139.5h135l-12 -451h-935z"/>
<glyph glyph-name="oe" horiz-adv-x="1815" unicode="œ" d="M1295 913q-45 0 -80.5 -17t-61.5 -47t-42.5 -72.5t-23.5 -93.5h377q-2 63 -15 107t-35.5 71.5t-52.5 39.5t-66 12zM575 913q-60 -2 -100 -34.5t-65 -84.5t-35.5 -117.5t-10.5 -132.5q0 -79 12.5 -156.5t40 -138.5t71 -99t105.5 -38q64 1 103 36.5t60.5 88.5t28.5 116.5 t7 121.5q0 45 -3.5 94.5t-13 98.5t-25 93t-39.5 78t-57.5 54t-78.5 20zM1747 551l-676 -12q0 -74 15.5 -143.5t50.5 -124.5t92 -88t141 -33q31 0 69 8t77.5 26t79.5 47.5t75 72.5l92 -87q-55 -79 -117 -128t-124.5 -76t-123 -36.5t-112.5 -9.5q-107 0 -201 41t-154 119h-2 q-63 -78 -151 -119t-193 -41q-111 0 -206.5 36.5t-165.5 104t-110 164t-40 217.5q0 127 41 232t111.5 179.5t164.5 115.5t199 41q70 0 123.5 -11.5t96 -32.5t76.5 -52t66 -70h3q33 37 68 67.5t77 52.5t92.5 34t115.5 12q85 0 166 -24.5t144 -83t101.5 -156t38.5 -242.5z"/>
<glyph glyph-name="Scaron" horiz-adv-x="1225" unicode="Š" d="M634 115q55 0 100.5 15t78 41.5t50.5 61.5t18 75q0 54 -29.5 93t-77 68.5t-106 53t-116.5 46.5q-99 40 -184 86t-147 106t-97 137t-35 178q0 42 10.5 87.5t33 89t59.5 82.5t90.5 68.5t124 46.5t161.5 17q40 0 86 -6.5t92 -18.5t88.5 -30.5t76.5 -42.5h2l-7 84h158v-479 h-134q-28 175 -119.5 260t-235.5 85q-44 0 -83.5 -13t-70 -36.5t-48.5 -56t-18 -70.5q0 -48 20 -86t61 -71t103 -64t147 -65q51 -21 106 -46t107 -55.5t98.5 -68t81 -83.5t55 -101.5t20.5 -122.5q0 -91 -37.5 -167t-106.5 -130.5t-166 -85t-216 -30.5q-40 0 -85 6.5t-91 19 t-91.5 31.5t-86.5 44h-2l7 -87h-158v479h134q14 -86 48 -150.5t83.5 -108t112.5 -65t135 -21.5zM631 1576h-40l-400 307l64 95l365 -178l374 183l55 -92z"/>
<glyph glyph-name="scaron" horiz-adv-x="993" unicode="š" d="M225 338q4 -47 30 -88t68 -71t98.5 -47t121.5 -17q25 0 50.5 6t45.5 18.5t32.5 31.5t12.5 46q0 29 -15.5 49.5t-45.5 38t-74.5 34.5t-102.5 40q-64 25 -129 51.5t-118 64.5t-86.5 93.5t-33.5 138.5q0 59 22.5 118t69.5 106t120 76.5t174 29.5q28 0 60.5 -4t65.5 -12.5 t64 -21.5t56 -31h2l-3 58h156v-362h-132q-9 53 -33.5 95.5t-61.5 72t-84.5 45.5t-102.5 16q-26 0 -50.5 -6t-43.5 -19t-30 -33.5t-11 -50.5q0 -36 19 -59.5t53 -40.5t79.5 -31.5t98.5 -32.5q78 -27 144 -59t114 -74.5t75.5 -97t27.5 -126.5q0 -80 -31.5 -139.5t-83.5 -98.5 t-119 -58.5t-139 -19.5q-44 0 -88 6t-84 16.5t-73.5 25.5t-57.5 33h-2l7 -62h-156l-8 352h132zM500 1167h-21l-333 347l88 105l265 -215h2l248 215l86 -98z"/>
<glyph glyph-name="Ydieresis" horiz-adv-x="1365" unicode="Ÿ" d="M858 568v-232q0 -28 -0.5 -55t-1.5 -51.5t-2.5 -44.5t-3.5 -33l164 6v-158h-598v135q34 1 61.5 6.5t46 22.5t28.5 52t10 97v179l-378 595q-15 24 -29 51t-25 53.5t-17.5 50t-6.5 40.5l-99 -6v158h603v-135q-6 0 -11.5 0.5t-11.5 0.5q-57 0 -90 -20.5t-33 -60.5 q1 -17 6 -36.5t19 -41.5l157 -257l21 -36t29.5 -52.5t30 -57.5t22.5 -51h3q10 23 34 72.5t62 127.5l106 209q8 16 21 41t28 52t30 52t29 41v2l-157 -8v158h452v-135q-36 -6 -65.5 -20t-56.5 -39.5t-53.5 -64.5t-56.5 -95zM1022 1786q0 -32 -11 -60t-30 -49t-44 -33t-52 -12 t-52 12t-43.5 33t-29.5 49t-11 60t11.5 60.5t30.5 50t44 34t52 12.5q28 0 53 -12.5t43 -34t28.5 -50t10.5 -60.5zM665 1786q0 -32 -11 -60t-30 -49t-44 -33t-52 -12t-52 12t-43.5 33t-29.5 49t-11 60t11.5 60.5t30.5 50t44 34t52 12.5q28 0 53 -12.5t43 -34t28.5 -50 t10.5 -60.5z"/>
<glyph glyph-name="circumflex" horiz-adv-x="879" unicode="ˆ" d="M440 1603h21l328 -347l-88 -105l-261 214h-2l-262 -199l-86 98z"/>
<glyph glyph-name="caron" horiz-adv-x="869" unicode="ˇ" d="M444 1167h-21l-333 347l88 105l265 -215h2l248 215l86 -98z"/>
<glyph glyph-name="ring" horiz-adv-x="734" unicode="˚" d="M366 1628q43 0 86.5 -14t78 -42.5t56.5 -72t22 -102.5q0 -56 -21 -101.5t-55.5 -77t-77.5 -48.5t-86 -17q-44 0 -87.5 15.5t-78 45.5t-56.5 74t-22 101q0 51 20 94.5t53.5 76t77 50.5t90.5 18zM365 1505q-26 -1 -48 -24t-22 -75q0 -65 23.5 -96.5t59.5 -31.5q26 0 47 25 t21 73q0 70 -24 99.5t-57 29.5z"/>
<glyph glyph-name="tilde" horiz-adv-x="872" unicode="˜" d="M312 1322q-12 0 -27.5 -4t-32.5 -13.5t-34.5 -25.5t-33.5 -40l-114 68q16 46 43 85t59 66.5t67.5 43t69.5 15.5q48 0 79 -12t57 -27t51.5 -27t62.5 -12q36 0 68.5 27.5t58.5 75.5l116 -59q-21 -64 -50 -109.5t-62 -74.5t-67 -42.5t-64 -13.5q-41 0 -73.5 12.5t-61 27 t-55.5 27t-57 12.5z"/>
<glyph glyph-name="Gamma" horiz-adv-x="1169" unicode="Γ" d="M1004 1037q0 83 -23.5 135t-59.5 81t-78 38.5t-80 9.5h-8l-74 -2q-32 -1 -57.5 -6.5t-43 -23.5t-27 -53t-9.5 -95v-785q0 -28 -0.5 -55t-1.5 -51.5t-2.5 -44.5t-3.5 -33q16 1 42.5 2t54 1.5t51 1.5t34.5 1v-158h-616v135q34 2 61.5 7t46 22t28.5 52t10 97v785 q0 28 0.5 55t1.5 51.5t2.5 44.5t3.5 33q-17 -1 -39 -2l-44 -2t-41 -1.5t-30 -0.5v158h1025l12 -397h-135z"/>
<glyph glyph-name="Delta" horiz-adv-x="1428" unicode="Δ" d="M273 146q186 -1 382 -1t391 -2q-50 127 -99 251t-99 247q-50 124 -100 250t-101 258zM779 1467l593 -1467h-1313l559 1467h161z"/>
<glyph glyph-name="Pi" horiz-adv-x="1622" unicode="Π" d="M1374 336q0 -28 -0.5 -55t-1.5 -51.5t-2.5 -44.5t-3.5 -33q16 1 38.5 2t44.5 1.5t41 1.5t30 1v-158h-588v135q34 2 61.5 7t46 22t28.5 52t10 97v966l-392 -5q-33 -2 -59.5 -7t-45 -22.5t-28 -52.5t-9.5 -96v-760q0 -28 -0.5 -55t-1.5 -51.5t-2.5 -44.5t-3.5 -33 q16 1 38.5 2t44.5 1.5t41 1.5t30 1v-158h-588v135q34 2 61.5 7t46 22t28.5 52t10 97v785q0 28 0.5 55t1.5 51.5t2.5 44.5t3.5 33q-17 -1 -39 -2l-44 -2t-41 -1.5t-30 -0.5v158h1418v-135q-35 -2 -62 -7t-45.5 -22t-28.5 -52t-10 -97v-785z"/>
<glyph glyph-name="pi" horiz-adv-x="1255" unicode="π" d="M177 232q49 0 80 -19q14 17 24 55q11 38 17 88t10 110q4 58 6 120t2 122t1 112q-42 -4 -94 -16t-103 -36l-68 105q28 33 62 65t75 55q41 24 87 39t98 15q76 1 140 -5t126 -13t130 -13t152 -5q42 0 93 11t118 44l76 -102q-14 -20 -34 -41q-19 -21 -43 -41t-50 -38t-52 -29 q0 -134 -1 -268t-1 -268q0 -61 18 -85t47 -24q14 0 29 5t30 13l62 -90q-22 -27 -50 -51q-28 -23 -58 -41t-66 -28q-34 -10 -72 -11q-82 0 -126 33t-65 81t-25 102t-4 96v124t2 143v138t1 107q-29 2 -68 5t-79 6q-40 2 -79 6q-38 4 -64 7q0 -82 -1 -175t-6 -182 q-4 -88 -14 -166t-28 -129q-34 -97 -90 -147t-133 -49q-28 0 -53 9q-25 8 -44 26q-18 18 -30 42t-12 56q0 34 13 58t32 42q19 16 41 24t41 8z"/>
<glyph glyph-name="endash" horiz-adv-x="1153" unicode="–" d="M106 753h941v-214l-941 -7v221z"/>
<glyph glyph-name="emdash" horiz-adv-x="1358" unicode="—" d="M106 753h1146v-214l-1146 -7v221z"/>
<glyph glyph-name="quoteleft" horiz-adv-x="457" unicode="‘" d="M69.0264 1108q0 99.9941 45.4971 214.487t142.491 232.485l78.9951 -56.9961q-15.999 -20.999 -36.498 -56.9971q-20.499 -35.9971 -38.4971 -79.9951q-17.999 -43.9971 -29.999 -92.4941q-11.999 -48.4971 -11.999 -93.4941q14.999 5 23.999 6q8.99902 1 19.998 1 q26.999 0 52.4971 -8q25.499 -8 44.9971 -24.498q19.499 -16.5 31.498 -41.998q12 -25.498 12 -61.4961q0 -30.998 -11 -58.9961q-10.999 -27.999 -30.998 -48.9971q-19.998 -20.999 -47.9971 -33.498q-27.998 -12.499 -62.9961 -12.499q-45.9971 0 -79.9951 16.498 q-33.998 16.5 -56.4961 45.998q-22.499 29.498 -33.998 68.9951q-11.499 39.498 -11.499 84.4951z"/>
<glyph glyph-name="quotesinglbase" horiz-adv-x="512" unicode="‚" d="M425 65q0 -100 -45.5 -214.5t-142.5 -232.5l-79 57q16 21 36.5 57t38.5 80t30 92.5t12 93.5q-15 -5 -24 -6t-20 -1q-27 0 -52.5 8t-45 24.5t-31.5 42t-12 61.5q0 31 11 59t31 49t48 33.5t63 12.5q46 0 80 -16.5t56.5 -46t34 -69t11.5 -84.5z"/>
<glyph glyph-name="quotedblleft" horiz-adv-x="867" unicode="“" d="M69.0264 1108q0 99.9941 45.4971 214.487t142.491 232.485l78.9951 -56.9961q-15.999 -20.999 -36.498 -56.9971q-20.499 -35.9971 -38.4971 -79.9951q-17.999 -43.9971 -29.999 -92.4941q-11.999 -48.4971 -11.999 -93.4941q14.999 5 23.999 6q8.99902 1 19.998 1 q26.999 0 52.4971 -8q25.499 -8 44.9971 -24.498q19.499 -16.5 31.498 -41.998q12 -25.498 12 -61.4961q0 -30.998 -11 -58.9961q-10.999 -27.999 -30.998 -48.9971q-19.998 -20.999 -47.9971 -33.498q-27.998 -12.499 -62.9961 -12.499q-45.9971 0 -79.9951 16.498 q-33.998 16.5 -56.4961 45.998q-22.499 29.498 -33.998 68.9951q-11.499 39.498 -11.499 84.4951zM479.026 1108q0 99.9941 45.4971 214.487t142.491 232.485l78.9951 -56.9961q-15.999 -20.999 -36.498 -56.9971q-20.499 -35.9971 -38.4971 -79.9951 q-17.999 -43.9971 -29.999 -92.4941q-11.999 -48.4971 -11.999 -93.4941q14.999 5 23.999 6q8.99902 1 19.998 1q26.999 0 52.4971 -8q25.499 -8 44.9971 -24.498q19.499 -16.5 31.498 -41.998q12 -25.498 12 -61.4961q0 -30.998 -11 -58.9961 q-10.999 -27.999 -30.998 -48.9971q-19.998 -20.999 -47.9971 -33.498q-27.998 -12.499 -62.9961 -12.499q-45.9971 0 -79.9951 16.498q-33.998 16.5 -56.4961 45.998q-22.499 29.498 -33.998 68.9951q-11.499 39.498 -11.499 84.4951z"/>
<glyph glyph-name="quotedblright" horiz-adv-x="841" unicode="”" d="M378 1341q0 -100 -45.5 -214.5t-142.5 -232.5l-79 57q16 21 36.5 57t38.5 80t30 92.5t12 93.5q-15 -5 -24 -6t-20 -1q-27 0 -52.5 8t-45 24.5t-31.5 42t-12 61.5q0 31 11 59t31 49t48 33.5t63 12.5q46 0 80 -16.5t56.5 -46t34 -69t11.5 -84.5zM788 1341 q0 -100 -45.5 -214.5t-142.5 -232.5l-79 57q16 21 36.5 57t38.5 80t30 92.5t12 93.5q-15 -5 -24 -6t-20 -1q-27 0 -52.5 8t-45 24.5t-31.5 42t-12 61.5q0 31 11 59t31 49t48 33.5t63 12.5q46 0 80 -16.5t56.5 -46t34 -69t11.5 -84.5z"/>
<glyph glyph-name="dagger" horiz-adv-x="1065" unicode="†" d="M470 -554q-8 132 -16 276t-20 290q-10 146 -22 290q-12 143 -29 271q9 23 17 57t18 73q8 39 16 79t16 77q-112 -31 -174 -39t-73 -9q-28 0 -54 5q-27 4 -47 18t-32 37t-13 58q0 35 12 57t32 36q20 13 46 18t53 5q32 1 65 -5t66 -14t66 -15q33 -8 65 -14q-8 40 -17 86 t-18 93q-9 48 -17 94t-11 87q-1 5 -1 11v11q0 29 8 59t24 53q16 24 42 39t63 15q36 0 61 -15q25 -14 41 -38t23 -53t7 -58v-12t-1 -12q-4 -41 -12 -87t-17 -94t-19 -94t-16 -86q32 6 65 14t67 16t66 14q33 6 65 5q27 0 53 -5t46 -18q20 -14 32 -36t12 -57t-12 -58t-33 -37 q-20 -14 -46 -18q-26 -5 -54 -5q-42 4 -76 10q-34 7 -64 13q-31 6 -57 12l-52 12q8 -36 16 -76l16 -80q8 -39 18 -73q9 -34 18 -56q-18 -129 -30 -271t-22 -288t-19 -290q-8 -144 -16 -278h-125z"/>
<glyph glyph-name="daggerdbl" horiz-adv-x="1115" unicode="‡" d="M702 498l-73 -356q57 13 93 22t62 15q26 7 50 9q23 2 54 2q28 0 54 -5t46 -19t32 -36q12 -23 13 -58q0 -34 -12 -56q-11 -22 -31 -36q-20 -12 -46 -18t-54 -6t-56 5t-59 12t-65 15t-72 16q6 -40 14 -88l16 -96t13 -96q7 -48 9 -72t2 -29v-11q0 -30 -8 -60t-24 -53 q-16 -24 -42 -39t-62 -15q-36 1 -62 15t-40 38q-16 24 -23 52q-7 30 -7 59q0 41 6 92t14 104q6 53 16 105t18 94q-32 -6 -66 -14t-66 -16t-64 -13q-30 -5 -56 -5q-28 0 -54 6t-46 18q-20 14 -32 36t-12 56q0 35 12 58q12 22 34 36q20 14 46 19t54 5q36 0 72 -6t68 -14 t62 -16t56 -13l-79 357l69 354q-54 -16 -98 -25t-74 -14q-32 -5 -52 -7t-24 -1q-28 0 -54 5t-46 18t-34 36q-12 23 -12 58q0 36 12 58t32 35t46 18t53 5q33 0 65 -6t66 -12l66 -16t66 -14q-6 40 -16 88t-19 98t-17 97q-8 49 -10 77t-2 34q0 28 8 58t24 54t42 39t62 15 t61 -15t41 -39t23 -52q7 -29 7 -58q0 -6 -2 -36t-11 -77q-8 -47 -17 -97t-18 -98t-16 -89q33 7 66 15l66 16q34 8 66 13t65 5q27 0 53 -5t46 -18t31 -35q12 -22 12 -58q-1 -35 -13 -58t-32 -36t-46 -18t-54 -5q-83 9 -141 23t-108 24z"/>
<glyph glyph-name="ellipsis" horiz-adv-x="1584" unicode="…" d="M1493 126q0 -33 -10.5 -62t-29 -50.5t-45.5 -34t-60 -12.5q-34 0 -62 12.5t-48 34t-31 50.5t-11 62t12 62.5t32.5 51.5t47.5 34.5t57 12.5q32 0 59 -12.5t47 -34.5t31 -51.5t11 -62.5zM940 126q0 -33 -10.5 -62t-29 -50.5t-45.5 -34t-60 -12.5q-34 0 -62 12.5t-48 34 t-31 50.5t-11 62t12 62.5t32.5 51.5t47.5 34.5t57 12.5q32 0 59 -12.5t47 -34.5t31 -51.5t11 -62.5zM387 126q0 -33 -10.5 -62t-29 -50.5t-45.5 -34t-60 -12.5q-34 0 -62 12.5t-48 34t-31 50.5t-11 62t12 62.5t32.5 51.5t47.5 34.5t57 12.5q32 0 59 -12.5t47 -34.5t31 -51.5 t11 -62.5z"/>
<glyph glyph-name="perthousand" horiz-adv-x="2695" unicode="‰" d="M1004 361q0 73 26 145t76 132q50 58 123 94t167 37q92 -1 162 -35t119 -90q48 -56 73 -125q25 -70 25 -140q1 -81 -29 -155t-82 -132q-52 -57 -122 -91t-150 -34q-95 0 -167 33q-71 33 -121 88t-75 126t-25 147zM1255 391q0 -37 6 -83t21 -85t42 -65t69 -27q37 1 63 21 t40 52q16 32 22 70t6 75q0 40 -6 86t-22 85t-42 65t-65 26q-39 1 -65 -23t-42 -58t-21 -71q-6 -38 -6 -68zM89 1059q0 71 26 144q25 73 75 131t122 96q72 37 165 37q93 -1 165 -35t120 -90t73 -125q25 -70 25 -140q0 -81 -30 -155t-81 -132q-51 -57 -121 -91t-151 -34 q-95 0 -167 33t-122 88t-74 126q-25 71 -25 147zM1583 1332l-1183 -1366l-133 124l1167 1377zM340 1089q0 -37 6 -83t21 -85t42 -65t69 -27q36 1 62 21t41 52t21 70t7 75q-1 40 -7 86t-22 85t-41 65q-26 26 -65 26q-39 1 -65 -23q-25 -24 -41 -58t-22 -71q-6 -38 -6 -68z M1848 361q0 73 26 145t76 132q50 58 123 94t167 37q92 -1 162 -35t119 -90q48 -56 73 -125q25 -70 25 -140q1 -81 -29 -155t-82 -132q-52 -57 -122 -91t-150 -34q-95 0 -167 33q-71 33 -121 88t-75 126t-25 147zM2099 391q0 -37 6 -83t21 -85t42 -65t69 -27q37 1 63 21 t40 52q16 32 22 70t6 75q0 40 -6 86t-22 85t-42 65t-65 26q-39 1 -65 -23t-42 -58t-21 -71q-6 -38 -6 -68z"/>
<glyph glyph-name="guilsinglleft" horiz-adv-x="774" unicode="‹" d="M38 581l552 552l117 -113l-374 -456v-2l374 -482l-113 -113l-556 570v44z"/>
<glyph glyph-name="guilsinglright" horiz-adv-x="774" unicode="›" d="M736 581v-44l-556 -570l-113 113l374 482v2l-374 456l117 113z"/>
<glyph glyph-name="fraction" horiz-adv-x="956" unicode="⁄" d="M1001 1357l-913 -1390l-133 99l907 1401z"/>
<glyph glyph-name="uni2074" horiz-adv-x="854" unicode="⁴" d="M212 942l178 -3l9 244h-2zM583 822v-13q0 -32 -1 -61t-3 -44l88 3v-90h-365v77q19 1 35 4t26.5 13t16.5 30t6 55v27l-310 2v120l436 522h71v-531h121v-115z"/>
<glyph glyph-name="Euro" horiz-adv-x="1656" unicode="€" d="M1148 631l-101 -153l-451 -2q45 -171 152 -257t264 -86q64 0 129 17t126 49.5t115.5 79.5t97.5 106l98 -90q-75 -104 -157 -168t-163 -99.5t-157 -48t-139 -12.5q-128 0 -236.5 37.5t-193.5 105t-144.5 161t-89.5 204.5l-213 -1l38 160l149 -1q-2 15 -2 30v30v31t1 30 h-186l38 160l173 -1q27 111 82.5 211.5t140.5 176.5t199 121t258 45q81 0 170.5 -23.5t171.5 -77.5h2v87h161l-50 -449h-134q-2 151 -75.5 232.5t-218.5 81.5q-86 0 -154.5 -32t-121 -87t-88 -129t-54.5 -157l687 -2l-97 -153l-609 -3q-1 -14 -1.5 -26.5t-0.5 -26.5 q0 -17 1 -35t5 -35z"/>
<glyph glyph-name="trademark" horiz-adv-x="2273" unicode="™" d="M929 1434l6 -303h-79q0 101 -40 147t-109 46h-68v-518q1 -33 -1 -63t-4 -46l97 4v-113h-389v99q20 1 36 4t27 13t17 32q6 20 6 56v530h-66q-69 0 -109 -46t-40 -145h-80l7 303h789zM1847 1238l-242 -662h-160l-176 398q-9 16 -19 46t-22 64q-12 36 -24 75t-20 75h-1 q1 -54 2 -102t1 -128l2 -199q0 -33 -4 -63t-5 -46l92 4v-112h-293v98q20 1 36 4q16 4 26 14t16 30t5 57l10 428q1 33 3 63l3 45l-92 -3v110h313l201 -470q23 -56 37 -100t29 -87h1q5 18 13 44t17 52q9 27 17 49t13 33l184 479h323v-97q-21 -1 -37 -3t-27 -12t-17 -28t-6 -51 l16 -456q0 -29 -2 -53t-3 -38l91 4v-112h-369v98q19 1 35 4t28 12q12 10 17 28q6 18 6 50l-10 248q-1 10 -1 34t-1 54t-3 62t-2 60h-1z"/>
<glyph glyph-name="partialdiff" horiz-adv-x="1089" unicode="∂" d="M512 114q40 2 72 26t56 64t42 94q17 54 28 114t16 126q5 65 5 127q1 39 -1 77t-6 73q-6 7 -16 19t-28 24q-17 12 -41 20t-56 8q-45 0 -85 -34t-71 -93t-49 -141t-19 -181q0 -91 12 -153q13 -62 33 -100t48 -54t60 -16zM260 1550q32 6 63 8t60 2q109 0 195 -33t154 -92 q66 -59 114 -140t77 -177q30 -96 44 -204t14 -220q0 -201 -43 -340t-115 -225t-165 -124t-193 -38q-71 -1 -139 29t-120 88t-84 144t-31 199q0 138 35 250q35 113 97 191q63 78 147 120t184 43q16 -1 40 -5t48 -12t45 -18q21 -11 33 -24h2q-10 72 -36 148t-72 140 q-48 64 -122 104t-180 40h-23t-24 -2z"/>
<glyph glyph-name="product" horiz-adv-x="1672" unicode="∏" d="M1570 1299q-35 -2 -62 -7t-45.5 -22t-28.5 -52t-10 -97v-1307q0 -28 -0.5 -55t-1.5 -51.5t-2.5 -44.5t-3.5 -33q16 1 38.5 2t44.5 1.5t41 1.5t30 1v-158h-588v135q34 2 61.5 7t46 22t28.5 52t10 97v1488l-584 -7v-1458q0 -28 -0.5 -55t-1.5 -51.5t-2.5 -44.5t-3.5 -33 q16 1 38.5 2t44.5 1.5t41 1.5t30 1v-158h-588v135q34 2 61.5 7t46 22t28.5 52t10 97v1307q0 28 0.5 55t1.5 51.5t2.5 44.5t3.5 33q-17 -1 -39 -2l-44 -2t-41 -1.5t-30 -0.5v158h1468v-135z"/>
<glyph glyph-name="summation" horiz-adv-x="1390" unicode="∑" d="M897 -365q45 0 90 15q45 16 80 50t57 90t22 140h135l-12 -451h-1150v135q34 2 60 14t49 36q22 24 46 63q24 38 53 93l302 608l-409 745q-7 13 -14 29t-13 30q-5 14 -11 27t-9 22l-103 -5v158h1153l12 -397h-135q0 83 -24 135t-59 80q-36 29 -80 39t-86 10l-364 -3 l386 -710v-33l-395 -789q-11 -22 -33 -60t-47 -72z"/>
<glyph glyph-name="minus" horiz-adv-x="1181" unicode="−" d="M129 771l923 -4v-212l-923 -4v220z"/>
<glyph glyph-name="radical" horiz-adv-x="1729" unicode="√" d="M-6 1024h465l153 -391q14 -35 28 -75t26 -80t23 -76q10 -37 17 -68h2q7 32 19 74l26 91q15 49 31 103t34 112l326 1051h625v-156l-507 7q-37 -125 -79 -259q-42 -135 -87 -273t-91 -279t-91 -279t-87 -273q-42 -134 -78 -258h-174l-304 740q-11 27 -19 49t-12 38t-8 30 q-3 12 -5 23l-233 6v143z"/>
<glyph glyph-name="infinity" horiz-adv-x="1685" unicode="∞" d="M445 499q29 0 69 9t80 27q40 19 77 45t62 62q-27 48 -62 93t-75 80t-82 56q-44 21 -88 21q-36 0 -68 -11t-57 -34t-41 -59t-15 -88q0 -48 15 -85t42 -63q28 -26 64 -40t79 -13zM1234 499q46 -1 84 15t65 44t41 68t15 88q-1 46 -15 84t-41 65t-65 42t-86 15q-30 0 -66 -8 t-74 -28t-74 -50q-37 -32 -70 -79q25 -48 58 -94q32 -46 70 -82t78 -58t80 -22zM471 1138q111 0 211 -60t175 -173h2q79 118 173 180t205 62q93 1 159 -35t107 -96q42 -60 61 -143q19 -82 19 -175q1 -89 -25 -169t-73 -140t-113 -95t-149 -35q-49 0 -99 12t-100 39 q-50 26 -99 70t-96 107h-2q-30 -45 -68 -85t-82 -70q-43 -30 -93 -48t-103 -17q-69 1 -124 19t-97 50t-73 76q-30 44 -49 92q-19 50 -28 104t-9 105q0 89 26 167t74 134q49 58 117 91t153 33z"/>
<glyph glyph-name="approxequal" horiz-adv-x="1169" unicode="≈" d="M383 380q-42 0 -76 -6t-64 -18t-57 -27t-55 -32v203q31 22 61 39t60 29t64 17q34 6 75 6q55 1 95 -9t73 -24q32 -14 59 -32q26 -18 54 -32t60 -24t73 -9q67 1 127 23t108 59v-202q-42 -39 -102 -65t-142 -25q-50 -1 -90 9t-72 24t-60 32q-28 16 -57 30t-61 24t-73 10z M383 781q-42 -1 -76 -7t-64 -18t-57 -26q-27 -15 -55 -32v203q31 22 61 39q30 16 60 28t64 18t75 6q55 0 95 -10t73 -24q32 -14 59 -31q26 -17 54 -31t60 -24t73 -10q67 0 127 22t108 60v-202q-42 -38 -102 -64t-142 -26q-50 0 -90 10t-72 24t-60 30t-57 32q-29 14 -61 24 t-73 9z"/>
<glyph glyph-name="notequal" horiz-adv-x="1114" unicode="≠" d="M95 902l556 -2l157 241l157 -105l-89 -137h141v-190l-266 -1l-122 -189l388 -1v-189l-514 -2l-177 -273l-154 107l107 165l-184 -1v197l310 -2l121 187l-431 -1v196z"/>
<glyph glyph-name="lessequal" horiz-adv-x="1160" unicode="≤" d="M103 831l922 409v-216l-637 -280v-2l637 -280v-218l-922 401v186zM1025 0h-923v174l923 10v-184z"/>
<glyph glyph-name="greaterequal" horiz-adv-x="1160" unicode="≥" d="M1056 655l-922 -409v216l637 280v2l-637 280v218l922 -401v-186zM1057 0h-923v174l923 10v-184z"/>
<glyph glyph-name="lozenge" horiz-adv-x="1040" unicode="◊" d="M575 -34h-109l-379 741v75l388 773h109l368 -761v-71zM528 295h2l223 462l-227 479h-2l-226 -477z"/>
<glyph glyph-name="Circumflex" horiz-adv-x="1042" unicode="" d="M510 1988h40l400 -307l-64 -95l-365 178l-374 -175l-55 92z"/>
<glyph glyph-name="Ring" horiz-adv-x="728" unicode="" d="M362 2061q47 0 96 -15.5t88.5 -47.5t65 -80.5t25.5 -114.5q0 -62 -24.5 -111.5t-63.5 -83.5t-87.5 -52t-96.5 -18q-50 0 -99 15.5t-88 47.5t-63 81t-24 117q0 58 24 106.5t63 83t87.5 53.5t96.5 19zM355 1952q-37 -3 -59.5 -39.5t-22.5 -99.5q0 -80 27 -122.5t70 -42.5 q36 0 60 30.5t24 96.5q0 87 -24 132t-66 45h-9z"/>
<glyph glyph-name="Tilde" horiz-adv-x="1046" unicode="" d="M379 1732q-39 0 -85 -22t-88 -83l-114 75q23 57 55.5 98.5t70 68t77 39.5t76.5 13q51 0 89.5 -16t72 -34.5t66.5 -34.5t72 -16q21 0 44 10t45.5 27.5t42.5 42t35 53.5l116 -64q-27 -80 -61 -130t-71 -78.5t-73.5 -39t-67.5 -10.5q-48 0 -85 16t-71 34.5t-69 34.5t-77 16z "/>
<glyph glyph-name="Acute" horiz-adv-x="635" unicode="" d="M163 1576l-73 101l235 242q24 25 54 39.5t61 14.5q19 0 37.5 -7.5t33.5 -21.5t24 -33t9 -42q0 -38 -23.5 -70t-58.5 -54z"/>
<glyph glyph-name="Caron" horiz-adv-x="1042" unicode="" d="M532 1576h-40l-400 307l64 95l365 -178l374 183l55 -92z"/>
<glyph glyph-name="Dieresis" horiz-adv-x="808" unicode="" d="M719 1786q0 -32 -11 -60t-30 -49t-44 -33t-52 -12t-52 12t-43.5 33t-29.5 49t-11 60t11.5 60.5t30.5 50t44 34t52 12.5q28 0 53 -12.5t43 -34t28.5 -50t10.5 -60.5zM362 1786q0 -32 -11 -60t-30 -49t-44 -33t-52 -12t-52 12t-43.5 33t-29.5 49t-11 60t11.5 60.5t30.5 50 t44 34t52 12.5q28 0 53 -12.5t43 -34t28.5 -50t10.5 -60.5z"/>
<glyph glyph-name="Grave" horiz-adv-x="636" unicode="" d="M174 1745q-35 21 -59 54t-24 71q0 22 9 41t24 32.5t33.5 21.5t37.5 8q31 0 61.5 -14.5t54.5 -39.5l235 -242l-73 -101z"/>
</font>
</defs>
</svg>
