<?xml version="1.0" encoding="UTF-8" standalone="no"?>
<!DOCTYPE svg  PUBLIC '-//W3C//DTD SVG 1.1//EN'  'http://www.w3.org/Graphics/SVG/1.1/DTD/svg11.dtd'>
<svg xmlns="http://www.w3.org/2000/svg">
<defs>
<font id="Lora-BoldItalic" horiz-adv-x="1365">
<font-face slope="-3" underline-position="-103" font-weight="700" descent="-410" panose-1="2 0 0 0 0 0 0 0 0 0" units-per-em="2048" unicode-range="U+0020-F6CE" bbox="-236 -563 2584 2116" x-height="1047" underline-thickness="102" font-family="Lora" ascent="1638" font-style="italic" cap-height="1434"/>
<missing-glyph horiz-adv-x="2048"/>
<glyph glyph-name=".notdef" horiz-adv-x="2048"/>
<glyph glyph-name=".null" horiz-adv-x="0"/>
<glyph glyph-name="nonmarkingreturn" horiz-adv-x="0"/>
<glyph glyph-name="space" horiz-adv-x="539" unicode=" "/>
<glyph glyph-name="exclam" horiz-adv-x="522" unicode="!" d="M321 437h-137l-33 844v6q1 30 9 60q10 33 29 59.5t48.5 43.5t68.5 17q41 0 69 -17t44 -43.5t21 -59.5q2 -16 2 -32.5t-2 -33.5zM382 126q-2 -33 -15.5 -62t-35.5 -50.5t-49.5 -34t-56.5 -12.5q-30 0 -55.5 12.5t-44 34t-28.5 50.5q-8 24 -8 51v11q1 33 14.5 62.5t35 51.5 t48.5 34.5t57 12.5q32 0 58 -12.5t44.5 -34.5t27.5 -52q8 -27 8 -55v-7z"/>
<glyph glyph-name="quotedbl" horiz-adv-x="664" unicode='&quot;' d="M427 1006l8 461h194l-42 -461h-160zM134 1006l8 461h194l-42 -461h-160z"/>
<glyph glyph-name="numbersign" horiz-adv-x="1724" unicode="#" d="M632 494h350l123 410h-354zM275 -33l101 351h-340l53 176h335l123 410h-345l53 176h341l111 387h200l-108 -387h355l111 387h200l-108 -387h343v-2l-51 -174h-340l-118 -410h342l-52 -176h-337l-98 -351h-213l101 351h-349l-98 -351h-212z"/>
<glyph glyph-name="dollar" horiz-adv-x="1167" unicode="$" d="M573 117q55 0 98 15t73 42t47 64.5t20 81.5v12q0 45 -21.5 80t-61.5 64t-93 52.5t-110 47.5q-87 36 -165 81t-135.5 104.5t-87.5 131.5t-30 156q0 13 1 27q3 61 24.5 127t71 122.5t131 95.5t204.5 45l13 248h192l-16 -268q89 -25 161 -77h2l-3 84h158l-25 -479h-134 q-9 86 -31.5 152t-60 111t-89.5 67.5t-120 22.5h-6q-44 0 -80 -14.5t-62.5 -39.5t-42 -58.5t-17.5 -71.5q-1 -8 -1 -17q0 -38 13 -71t47.5 -65.5t92.5 -65t144 -72.5q49 -23 100 -48.5t98 -55.5t88 -66t70.5 -81t43.5 -95t14 -104q0 -11 -1 -22q-4 -80 -33.5 -149 t-82 -121.5t-127.5 -87.5t-170 -48l-16 -289h-187l13 289q-64 10 -129 33.5t-125 60.5h-2l3 -87h-158l25 479h134q19 -172 108.5 -257.5t232.5 -85.5z"/>
<glyph glyph-name="percent" horiz-adv-x="1813" unicode="%" d="M1365 629q-48 0 -77 -31t-45.5 -74t-22 -88t-5.5 -73q0 -38 6 -83t20.5 -83.5t39.5 -64t63 -25.5q42 0 70.5 29t45 70.5t23.5 88.5t7 83q0 45 -6 90t-20.5 81t-38.5 58t-60 22zM486 1327q-48 0 -77 -31t-45.5 -74t-22 -88t-5.5 -73q0 -38 6 -83t20.5 -83.5t39.5 -64 t63 -25.5q42 0 70.5 29t45 70.5t23.5 88.5t7 83q0 45 -6 90t-20.5 81t-38.5 58t-60 22zM970 361q4 72 32.5 144t80 130t124 95t164.5 39h10q88 0 156.5 -33t114 -89t65.5 -121t20 -125q0 -11 -1 -22q-5 -81 -36.5 -155.5t-84.5 -131.5t-125 -91t-156 -34q-95 0 -165 33 t-115.5 88t-65 120.5t-19.5 128.5q0 12 1 24zM91 1059q4 72 32.5 144t80 129.5t124.5 94.5t165 40h5q91 0 160 -33.5t115 -89t65.5 -120.5t19.5 -124q0 -11 -1 -23q-4 -81 -37 -155.5t-87 -131.5t-125 -91t-152 -34q-95 0 -165 33t-116 88t-65.5 120.5t-19.5 128.5 q0 12 1 24zM1597 1332l-1255 -1366l-126 124l1239 1377z"/>
<glyph glyph-name="ampersand" horiz-adv-x="1403" unicode="&amp;" d="M778 1185q0 9 1.5 21.5t5 26t8.5 25.5t12 20q-24 24 -57.5 36.5t-81.5 12.5h-7q-38 -1 -74 -17.5t-65 -47t-47.5 -75t-21.5 -101.5v-13q0 -34 9.5 -73t37.5 -74t76.5 -57.5t122.5 -22.5q14 0 68 2l-8 -144l-71 2h-13q-65 0 -120.5 -19.5t-97.5 -58t-67 -92.5t-29 -119 q-1 -14 -1 -28q0 -58 19.5 -110t59 -91t94 -59t114.5 -20q99 0 169.5 30.5t117.5 81t72.5 115.5t36.5 135h-1q-20 0 -46.5 -4t-58 -14.5t-66.5 -28t-71 -45.5l-68 73q44 65 82 106t79.5 64t90.5 31.5t115 8.5q32 0 64 2.5t64 12.5t65.5 29.5t68.5 53.5l79 -68 q-26 -46 -51.5 -82.5t-56.5 -62.5t-70.5 -43t-93.5 -24q-6 -55 -22 -114.5t-45.5 -116.5t-74 -108.5t-107 -90t-144.5 -61t-186 -22.5q-114 0 -212.5 24.5t-171.5 75.5t-115 128.5t-42 182.5q0 75 28 140.5t78 119t119.5 92t152.5 58.5v2q-63 12 -113.5 37.5t-86 60.5 t-54.5 79t-19 94q0 98 39 174t105.5 128t153.5 78t181 26h7q94 -1 169 -21.5t127.5 -55.5t80.5 -82.5t28 -101.5q0 -29 -9.5 -54.5t-27 -45.5t-42 -31.5t-55.5 -11.5q-58 0 -92.5 33t-37.5 89z"/>
<glyph glyph-name="quotesingle" horiz-adv-x="385" unicode="&apos;" d="M136 1006l6 461h209l-43 -461h-172z"/>
<glyph glyph-name="parenleft" horiz-adv-x="607" unicode="(" d="M311.5 496.5q-2.5 -38.5 -2.5 -79.5q0 -21 1 -68t8.5 -132t22.5 -179t40 -186.5t60.5 -179t84.5 -156.5l-78 -71q-48 47 -98.5 110.5t-98 141.5t-88.5 169t-70 191.5t-41.5 193t-12.5 172.5q0 33 4 106.5t30 183.5t65.5 213.5t90 197t106 174t113 146.5t110.5 112l70 -71 q-56 -70 -101 -158.5t-79 -183.5t-59 -192t-41.5 -184t-25 -159.5t-11 -111z"/>
<glyph glyph-name="parenright" horiz-adv-x="607" unicode=")" d="M279.5 504.5q2.5 38.5 2.5 79.5q0 21 -1 68t-8.5 132t-22.5 179t-40 186.5t-60.5 179t-84.5 156.5l78 71q48 -47 98.5 -110.5t98 -141.5t88.5 -169t70 -191.5t41.5 -193t12.5 -172.5q0 -33 -4 -106.5t-30 -183.5t-65.5 -213.5t-90 -197t-106 -174t-113 -146.5 t-110.5 -112l-70 71q56 70 101 158.5t79 183.5t59 192t41.5 184t25 159.5t11 111z"/>
<glyph glyph-name="asterisk" horiz-adv-x="1048" unicode="*" d="M506 1060q-23 79 -31.5 136.5t-8.5 99.5q0 28 3.5 58.5t15 55.5t33.5 41t59 16q30 0 48.5 -11t29 -28.5t14 -40.5t3.5 -47q0 -44 -13.5 -111t-53.5 -169q61 43 108.5 71t85 44.5t67 23t54.5 6.5q16 0 33.5 -5t31 -16.5t22.5 -30.5t9 -47q0 -23 -10.5 -41t-27.5 -31 t-38 -22.5t-43 -16.5q-44 -14 -107 -22t-160 -8q75 -57 119 -99.5t67 -76.5q17 -24 28.5 -51t11.5 -53q0 -16 -8.5 -33.5t-22.5 -32.5t-33.5 -24.5t-40.5 -9.5q-34 0 -60 23.5t-46 53.5q-23 36 -48.5 95t-48.5 150q-35 -92 -64.5 -148t-56.5 -91q-25 -31 -54.5 -56.5 t-64.5 -25.5q-20 0 -37 8.5t-30.5 22t-21 30t-7.5 31.5q0 27 14.5 54t34.5 52q28 35 77.5 80.5t131.5 100.5q-98 0 -160 8.5t-103 22.5q-21 7 -40.5 16.5t-34.5 22t-24 29.5t-9 38q0 30 9.5 50t24 32t31.5 17.5t32 5.5q25 0 54.5 -6t66.5 -22.5t83.5 -45t105.5 -73.5z"/>
<glyph glyph-name="plus" horiz-adv-x="1037" unicode="+" d="M70 744l356 -2l19 370h195l-19 -370l363 -2l-10 -180l-363 -1l-20 -391h-195l20 390l-356 -1z"/>
<glyph glyph-name="comma" horiz-adv-x="509" unicode="," d="M388 65q-5 -99 -57 -214t-155 -233l-76 57q17 20 39.5 56.5t43 80.5t35.5 92.5t16 93.5q-15 -5 -24 -6t-20 -1q-27 0 -52.5 8t-43.5 25q-20 16 -30 42q-9 21 -8 50v11q1 30 13 58t32.5 49t48.5 34t61 13h5q44 1 76 -15q34 -16 56 -46q22 -29 32 -69q8 -33 8 -70v-16z"/>
<glyph glyph-name="hyphen" horiz-adv-x="968" unicode="-" d="M114 749h754l-11 -207l-754 -7z"/>
<glyph glyph-name="period" horiz-adv-x="478" unicode="." d="M354 126q-2 -33 -13.5 -62t-31.5 -50.5t-47.5 -34t-60.5 -12.5q-34 0 -61 12.5t-46 34t-29 50.5q-8 24 -8 51v11q2 33 15.5 62.5t35.5 51.5t49.5 34.5t57.5 12.5q32 0 58.5 -12.5t44.5 -34.5t28 -52q8 -24 8 -51v-11z"/>
<glyph glyph-name="slash" horiz-adv-x="1362" unicode="/" d="M1386 1427l-1282 -1982l-144 105l1253 1997z"/>
<glyph glyph-name="zero" horiz-adv-x="1279" unicode="0" d="M85.5 738q3.5 59 24 148.5t56.5 173.5t87.5 158t118 129.5t147.5 87.5t176 32q99 0 177 -31.5t136.5 -86t99 -127.5t64.5 -155.5t31 -157.5t7 -133q0 -28 -1 -55q-5 -85 -24.5 -174t-55 -172.5t-85.5 -158t-115.5 -130t-146 -87.5t-175.5 -32q-104 0 -184.5 31.5 t-140.5 85.5t-100 126.5t-63 155.5t-30 154.5t-7 126.5q0 32 3.5 91zM392 753q-4 -71 -4 -146.5t6.5 -147.5t21.5 -136t42.5 -112t68.5 -76t100 -28q73 0 122.5 46.5t81.5 125.5t48 182t22 216q5 83 5 163.5t-6.5 153t-21.5 133.5t-41 106t-64 70t-91 25q-74 0 -126 -47 t-86.5 -126t-53 -183.5t-24.5 -218.5z"/>
<glyph glyph-name="one" horiz-adv-x="813" unicode="1" d="M101 1001l-66 123l481 343h124l-59 -1131q-2 -28 -4 -55t-4 -51.5t-4.5 -44.5t-5.5 -33l154 6l-8 -158h-583l7 135q34 2 61.5 7t47.5 22t31.5 52t14.5 97l43 821z"/>
<glyph glyph-name="two" horiz-adv-x="1070" unicode="2" d="M504 1321q-55 0 -100.5 -25.5t-68.5 -60.5q20 -23 28.5 -55.5t6.5 -54.5q-2 -20 -10.5 -42.5t-26.5 -41.5t-44.5 -31t-60.5 -12h-6q-32 1 -55.5 13t-39 32t-22.5 47t-5 57q3 46 35 102t91 104.5t144 81t193 32.5q82 0 163.5 -20t144.5 -66t98 -114.5t35 -157.5 q0 -14 -1 -29q-3 -52 -24.5 -107.5t-74.5 -123.5t-145.5 -154t-237.5 -200q-118 -93 -175.5 -168t-69.5 -116l401 -11q34 -1 63 3.5t50 19t34 41t15 69.5h130l-34 -333h-897q6 106 38 189.5t80.5 152t109 126t122.5 112.5q78 69 134.5 131t93 120t55 113.5t21.5 110.5 q1 14 1 27q0 34 -6.5 75.5t-28 79.5t-59 61t-95.5 23z"/>
<glyph glyph-name="three" horiz-adv-x="1119" unicode="3" d="M42 269q1 30 12.5 58t31 49t45.5 34t58 14h6q34 0 58 -12t38.5 -32t19.5 -43.5t4 -44.5q-1 -19 -10 -45.5t-27 -48.5q9 -19 28 -34t43 -25.5t52 -16t57 -5.5q64 0 113.5 20.5t84 57t53.5 86t22 107.5q1 11 1 22q0 42 -10.5 90t-42.5 91t-87.5 69t-135.5 26h-12 q-7 0 -21 -0.5t-30 -1.5t-31 -2t-24 -2l7 147q17 -2 30 -2h30q67 0 121 19t92.5 52.5t60.5 80.5t26 104q1 18 1 34q0 33 -6.5 70t-27.5 69t-57 50t-88 18q-28 0 -54 -7.5t-47.5 -19.5t-38.5 -27t-26 -31q17 -23 23 -52t4 -49q-1 -18 -9.5 -41t-26 -43.5t-43.5 -33.5t-61 -13 h-5q-32 1 -55.5 13t-39 32t-23 47t-5.5 57q3 45 32.5 100t85.5 102t138.5 79t190.5 32q95 0 176.5 -19t140 -62.5t87.5 -108t29 -147.5q0 -13 -1 -27q-2 -40 -20.5 -88.5t-56.5 -94t-98 -83t-145 -55.5v-2q97 -17 166 -54t112.5 -87.5t61 -107.5t17.5 -112v-18 q-6 -105 -50 -186t-118.5 -136t-176 -83.5t-221.5 -28.5q-116 0 -198.5 27t-134 70.5t-73.5 94t-22 98.5v12z"/>
<glyph glyph-name="four" horiz-adv-x="1091" unicode="4" d="M199 561l344 -2l26 452h-2zM820 370l-1 -34q-2 -28 -4 -55t-4 -51.5t-4.5 -44.5t-5.5 -33l154 6l-8 -158h-579l7 135q34 2 61.5 7t47.5 22t31.5 52t14.5 97l3 57h-534l11 193l744 904h124l-48 -911l200 -1l-10 -185h-200z"/>
<glyph glyph-name="five" horiz-adv-x="1084" unicode="5" d="M305 188q6 -17 23.5 -31t39.5 -24t47 -15.5t46 -5.5q61 0 106 26t75.5 67t46 93t18.5 105q2 25 2 54q0 7 -0.5 30t-7 62.5t-21 77t-41 66.5t-66.5 47t-97 18q-44 0 -110 -16.5t-140 -58.5l-84 67l28 684h530q35 0 64 4.5t50 19t33.5 40.5t14.5 69h130l-33 -333l-644 -11 l-19 -365q24 10 55 19t64.5 15.5t67.5 10.5t65 4q127 0 218.5 -37.5t149.5 -101t82 -141.5t24 -155q0 -12 -1 -25q-6 -119 -56 -209t-127 -150t-173 -90.5t-196 -30.5q-101 0 -178 25.5t-129.5 65.5t-77 87.5t-24.5 91.5v10q1 30 12.5 58t30 49.5t44.5 35t58 14.5h6 q35 0 59 -12t38.5 -32t20 -43.5t4.5 -44.5q-2 -17 -8 -40.5t-20 -43.5z"/>
<glyph glyph-name="six" horiz-adv-x="1146" unicode="6" d="M1042 1192q-1 -27 -11 -53.5t-27.5 -47t-42.5 -33t-56 -12.5q-38 0 -63.5 12.5t-40 32t-20 42t-4.5 43.5q1 17 8 43t25 46q-15 25 -48 41.5t-75 16.5h-14q-50 -3 -89 -27.5t-70 -64.5t-53 -92t-38 -109t-25.5 -117t-13.5 -115q17 19 47 39t66.5 36.5t77 27.5t78.5 12h18 q101 0 178 -32.5t126 -95.5t67 -141.5t18 -156.5q0 -23 -1 -47q-5 -97 -46.5 -183t-111 -150.5t-163 -102t-202.5 -37.5q-137 0 -228 48.5t-143.5 139t-67.5 197t-15 205.5q0 50 3 103q3 59 16 141.5t41 172.5t72.5 178t110 158t154 113.5t204.5 43.5q97 0 166 -25.5 t113 -65.5t62 -85.5t18 -86.5v-12zM586 750q-33 0 -64 -10.5t-59 -29t-50.5 -43t-37.5 -52.5q-2 -32 -2 -68q0 -18 1 -55t7.5 -93t19.5 -108t34 -92t50.5 -64t69.5 -24q54 0 90 23.5t59 62.5t33.5 89t13.5 103q2 31 2 69.5t-4 78.5t-14 78.5t-29 68.5t-48.5 48t-71.5 18z "/>
<glyph glyph-name="seven" horiz-adv-x="942" unicode="7" d="M343 1231q-35 0 -64 -6.5t-50 -23t-33.5 -45t-14.5 -71.5h-130l34 349h872l-10 -186q-51 -94 -93 -184t-77.5 -179t-66.5 -178.5t-60.5 -183t-59 -193t-62.5 -208.5q-9 -28 -21.5 -56t-30.5 -50t-43 -35.5t-59 -13.5q-31 0 -52.5 9.5t-35 25t-19.5 36t-6 42.5 q0 17 3 35.5t11.5 45.5t24.5 66.5t42.5 97.5t64 138.5t90 189.5t121 250.5t156.5 322.5z"/>
<glyph glyph-name="eight" horiz-adv-x="1151" unicode="8" d="M440 1133q0 -47 16.5 -86t45.5 -73.5t67 -63t82 -46.5q40 29 71.5 64t53 71.5t33 72t11.5 65.5q0 45 -13.5 80t-37.5 58.5t-56 35.5t-68 12q-45 0 -81.5 -15.5t-63.5 -41.5t-42.5 -60.5t-17.5 -72.5zM766 309q0 48 -12.5 88t-41.5 80t-76.5 79.5t-118.5 75.5 q-49 -36 -83 -79.5t-55 -87t-30.5 -82.5t-9.5 -66q0 -45 15.5 -82.5t43.5 -65t67 -43t86 -15.5q48 0 87 15.5t66.5 42.5t43.5 63t18 77zM1042 1119q-3 -53 -27.5 -103t-62 -93.5t-83 -79.5t-89.5 -61v-2q145 -92 213.5 -193.5t68.5 -213.5q0 -106 -44 -182.5t-117.5 -126 t-168.5 -73.5t-197 -24q-47 0 -98 7.5t-100.5 23.5t-94.5 42t-79 63t-54 86t-20 111q0 63 24.5 122t65 111.5t93 96t108.5 75.5v2q-63 41 -106.5 86.5t-70.5 92t-39 91.5t-12 86q0 69 21.5 126t57.5 101.5t84.5 78t102.5 55t110 32.5t109 11q77 0 150 -22t129.5 -64t91 -104 t34.5 -158z"/>
<glyph glyph-name="nine" horiz-adv-x="1148" unicode="9" d="M579 684q33 0 64 10.5t58 29t49 43t37 52.5q3 54 3 107q0 82 -9.5 154t-31 126t-56.5 85.5t-86 31.5q-56 0 -93.5 -31t-61 -79.5t-33.5 -109.5t-10 -121q0 -48 6.5 -100.5t25 -96.5t51.5 -72.5t87 -28.5zM118 232q1 30 12 58t29.5 50t44.5 35t57 13q36 0 59.5 -11.5 t38 -29t20 -39t5.5 -41.5q0 -27 -7 -49.5t-26 -46.5q14 -23 46 -40.5t78 -17.5q78 0 134.5 44.5t93.5 118t55.5 167.5t19.5 193q-19 -21 -50 -41.5t-69.5 -37t-80 -26.5t-81.5 -10q-104 0 -178.5 32.5t-122.5 90.5t-71 138t-23 176q0 111 37 204t104.5 161t162 106t210.5 38 q126 0 214 -45t143 -125t79.5 -191.5t24.5 -244.5q0 -53 -4 -119t-15.5 -139t-31 -148.5t-51 -146t-76 -132.5t-105 -108.5t-139 -73.5t-177.5 -27q-94 0 -162 20.5t-112 56t-65 84t-21 104.5z"/>
<glyph glyph-name="colon" horiz-adv-x="536" unicode=":" d="M399 126q-2 -33 -13.5 -62t-31.5 -50.5t-47.5 -34t-60.5 -12.5q-34 0 -61 12.5t-46 34t-29 50.5q-8 24 -8 51v11q2 33 15.5 62.5t35.5 51.5t49.5 34.5t57.5 12.5q32 0 58.5 -12.5t44.5 -34.5t28 -52q8 -24 8 -51v-11zM419 951q-2 -33 -13.5 -62t-31.5 -50.5t-47.5 -34 t-60.5 -12.5q-34 0 -61 12.5t-46 34t-29 50.5q-8 24 -8 51v11q2 33 15.5 62.5t35.5 51.5t49.5 34.5t57.5 12.5q32 0 58.5 -12.5t44.5 -34.5t28 -52q8 -24 8 -51v-11z"/>
<glyph glyph-name="semicolon" horiz-adv-x="553" unicode=";" d="M426 937.5q-1 -19.5 -12.5 -48.5t-31.5 -50.5t-47.5 -34t-60.5 -12.5q-34 0 -61 12.5t-46 34t-29 50.5t-8 62t15.5 62.5t35.5 51.5t49.5 34.5t57.5 12.5q32 0 58.5 -12.5t45 -34.5t27 -49t8.5 -54q0 -5 -1 -24.5zM424 65q-5 -99 -57 -214t-155 -233l-76 57 q17 20 39.5 56.5t43 80.5t35.5 92.5t16 93.5q-15 -5 -24 -6t-20 -1q-27 0 -52.5 8t-44 24.5t-28 40t-9.5 52.5v11q1 30 13 58t32.5 49t48.5 34t61 13h5q44 0 77.5 -16t55.5 -45t30.5 -65.5t8.5 -73.5v-16z"/>
<glyph glyph-name="less" horiz-adv-x="1093" unicode="&lt;" d="M66 733l944 409l-12 -211l-671 -285v-2l642 -285l-12 -213l-901 401z"/>
<glyph glyph-name="equal" horiz-adv-x="1169" unicode="=" d="M140 926l921 -3l-9 -185l-923 -3zM120 541l921 -4l-9 -184l-923 -4z"/>
<glyph glyph-name="greater" horiz-adv-x="1092" unicode="&gt;" d="M1031 555l-944 -409l12 211l671 285v2l-642 285l12 213l901 -401z"/>
<glyph glyph-name="question" horiz-adv-x="993" unicode="?" d="M658 1100v22q0 35 -4 67q-6 41 -26 71t-53.5 47t-85.5 17q-25 0 -49.5 -6t-45.5 -15.5t-37.5 -21t-26.5 -23.5q10 -11 16.5 -25.5t10.5 -30t5.5 -30.5t0.5 -25q-2 -21 -12.5 -44.5t-28.5 -42.5q-20 -20 -46 -32q-23 -11 -52 -11h-10q-64 3 -94 44q-28 37 -27 91v11 q3 55 38 109t94.5 97.5t139 70.5t171.5 27q122 0 203.5 -28t130.5 -74q49 -47 68 -105q16 -51 16 -102v-17q-4 -72 -38.5 -133t-84.5 -113.5t-108 -97t-107 -83.5t-82.5 -73.5t-35.5 -67.5q-1 -17 7 -30.5t25 -21.5q17 -9 44 -9h3q26 0 62 9l27 -105q-27 -14 -55 -22.5 t-55 -13.5t-51.5 -7t-43.5 -2q-33 0 -64.5 7.5t-55.5 24.5t-38 44q-12 24 -12 56v10q1 25 9 48t27.5 51t54 64.5t89.5 87.5q38 36 70.5 71t57.5 74.5t40.5 85.5t18.5 105zM619 126q-2 -33 -16 -62t-36 -50.5t-50 -34t-57 -12.5q-30 0 -56 12.5t-45 34t-29 50.5q-8 24 -8 51 v11q1 33 15 62.5t35.5 51.5t49 34.5t57.5 12.5q32 0 58.5 -12.5t44.5 -34.5t28 -52q9 -27 9 -56v-6z"/>
<glyph glyph-name="at" horiz-adv-x="1570" unicode="@" d="M1359 57q-121 -128 -270 -192t-310 -68h-26q-110 0 -207.5 24.5t-178.5 72.5t-140.5 116t-97 150t-52 163.5t-14.5 156.5q0 22 1 45q5 87 32 178.5t74.5 178t116 163.5t156 134.5t193.5 91t229 33.5q112 0 204.5 -27t165.5 -75t126 -113t86 -141t44 -145t11 -125 q0 -29 -4.5 -85t-27.5 -124.5t-57.5 -122t-78 -92.5t-90 -64t-89 -35t-76.5 -10q-9 0 -18 1q-37 2 -73 14t-62 41.5t-35.5 68t-9.5 72.5q0 31 5 68q-31 -69 -65.5 -117.5t-70.5 -79t-71.5 -44t-68.5 -13.5q-43 0 -80.5 17t-65 53t-40 86t-12.5 107q0 16 1 34q5 100 40 196.5 t97.5 173t152 123.5t204.5 47q45 0 107 -10.5t130 -32.5q-9 -46 -19 -100t-20.5 -110t-20 -112t-17.5 -105.5t-13.5 -90.5t-6.5 -67q-1 -23 1 -44.5t10 -38.5t23.5 -27.5t40.5 -10.5q40 0 73 19.5t58.5 51.5t44 73.5t31.5 85t19.5 86.5t8.5 79q1 23 1 45q0 112 -32.5 211 t-101.5 172.5t-165.5 111t-209.5 37.5q-88 0 -167 -26t-147.5 -72t-124 -110t-96.5 -139t-65 -159.5t-28 -172.5q-1 -24 -1 -47q0 -126 40 -236.5t121 -191.5t192 -123t237 -42q62 0 129.5 13.5t133.5 40t128.5 67t114.5 94.5zM673 297q26 0 54 27.5t54.5 73.5t51.5 105.5 t45 125t34 131.5t20 124q-13 5 -29.5 6.5t-26.5 1.5t-19 -1q-53 -5 -97 -48t-75.5 -107.5t-50.5 -141.5t-23 -148q-1 -14 -1 -26q0 -53 15.5 -88t47.5 -35z"/>
<glyph glyph-name="A" d="M444 573h345l-80 257q-23 74 -40 148t-24 131h-2q-8 -35 -32 -104t-62 -166zM833 428l-449 -8l-38 -96q-6 -14 -14.5 -35t-18.5 -44.5t-20.5 -46t-19.5 -40.5l150 6l-9 -164h-438l7 141q42 0 73 19.5t54.5 51.5t42.5 74.5t39 88.5l457 1095h137l379 -1116q5 -15 12.5 -40 t14.5 -53.5t12.5 -57t7.5 -51.5l118 6l-8 -158h-547l7 135q43 0 66.5 13.5t32 38t4.5 57.5t-16 72z" unicode="A"/>
<glyph glyph-name="B" horiz-adv-x="1349" unicode="B" d="M658 807q65 1 110 23t74 59.5t43 87t17 105.5v18q0 49 -15.5 87t-45 63t-66 34.5t-71.5 9.5h-7q-26 -1 -48 -6t-39 -22t-28 -51t-14 -93l-17 -318zM508 145q54 0 103 0.5t98 2.5q62 3 108 23.5t76.5 55.5t47 82.5t19.5 104.5q1 11 1 22q0 55 -19 99t-54.5 73t-82.5 41 t-96 12h-88.5t-77.5 -2l-17 -333q-2 -28 -4 -54.5t-4 -50.5t-4.5 -43.5t-5.5 -32.5zM79 135q34 2 61.5 7t47.5 22t31.5 52t14.5 97l41 785q1 28 3.5 55t4.5 51.5t4.5 44.5t5.5 33q-17 -1 -39 -2l-44 -2t-41 -1.5t-30 -0.5l8 158l563 4h10q117 0 212 -22.5t160.5 -69.5 t92 -109t26.5 -128q0 -22 -2 -45q-5 -44 -26 -87.5t-58.5 -81.5t-92 -69t-127.5 -50v-2q101 -16 173 -51.5t117.5 -84t64 -104t18.5 -110.5v-17q-5 -100 -45.5 -176t-109 -127.5t-160 -77.5t-199.5 -26h-692z"/>
<glyph glyph-name="C" horiz-adv-x="1414" unicode="C" d="M398 738q-2 -31 -2 -61q0 -98 20.5 -197.5t72 -181.5t130 -128.5t182.5 -47.5q61 0 126 14t129.5 45t125 79t112.5 116l81 -81q-80 -104 -165.5 -168t-168 -99.5t-159.5 -48t-140 -12.5q-158 0 -284.5 56.5t-213.5 155t-127 221t-40 249.5q0 23 1 47q5 93 30 186.5 t69.5 179t108 159.5t146 129t183.5 86t220 31q40 0 84.5 -6.5t89.5 -19.5t89 -31.5t84 -43.5h2l-3 87h158l-25 -479h-134q-19 173 -100.5 263t-225.5 91q-107 0 -189.5 -50.5t-140 -133.5t-89 -189t-37.5 -217z"/>
<glyph glyph-name="D" horiz-adv-x="1546" unicode="D" d="M728 1299h-12q-30 0 -56.5 -4.5t-46.5 -22.5t-31 -53t-14 -94l-42 -789q-1 -28 -3 -55t-4 -51.5t-4.5 -44.5t-5.5 -33q15 1 40.5 1t54 -1t56 -1.5t45.5 -0.5q112 0 195 45.5t139 121t86 172.5t35 199q2 36 2 70q0 113 -23.5 214t-80 175.5t-140.5 111.5t-190 40z M147 1434l592 2q135 0 243.5 -28t192.5 -78t144 -118t97 -146.5t51 -155t14 -144.5q0 -17 -1 -35q-4 -83 -27 -169.5t-67 -168t-110.5 -153t-156.5 -125t-206 -84.5t-259 -31h-582l7 135q34 2 61.5 7t47.5 22t31.5 52t14.5 97l41 785q1 28 3.5 55t4.5 51.5t4.5 44.5t5.5 33 q-17 -1 -39 -2l-44 -2t-41 -1.5t-30 -0.5z"/>
<glyph glyph-name="E" horiz-adv-x="1276" unicode="E" d="M544 672l-17 -336q-2 -28 -4 -54.5t-4 -50.5t-4.5 -43.5t-5.5 -32.5l275 1q45 0 90.5 15t83 49.5t62 91t29.5 139.5h135l-36 -451h-1076l7 135q34 2 61.5 7t47.5 22t31.5 52t14.5 97l41 785q1 28 3.5 55t4.5 51.5t4.5 44.5t5.5 33l-154 -6l8 158h1020l-9 -397h-135 q1 14 1 26q0 65 -18 109q-20 52 -54 81t-78 39q-40 9 -78 9h-8l-74 -2q-32 -1 -58 -6.5t-44.5 -23.5t-29.5 -53t-14 -95l-16 -307h241v177h158l-26 -498h-135q1 11 1 22q0 49 -12 79q-14 37 -40 55q-27 17 -63 21q-28 3 -60 3h-18z"/>
<glyph glyph-name="F" horiz-adv-x="1159" unicode="F" d="M542 622l-15 -286q-2 -28 -4 -55t-4 -51.5t-4.5 -44.5t-5.5 -33l182 6l-8 -158h-611l7 135q34 2 61.5 7t47.5 22t31.5 52t14.5 97l41 785q1 28 3.5 55t4.5 51.5t4.5 44.5t5.5 33l-154 -6l8 158h1020l-9 -397h-135q1 14 1 26q0 65 -19 113t-53.5 77t-76 38.5t-79.5 9.5h-8 l-74 -2q-32 -1 -58 -6.5t-44.5 -23.5t-29.5 -53t-14 -95l-19 -357h212v177h158l-26 -498h-135q1 12 1 22q0 48 -12.5 82t-39 52t-58.5 21t-64 3h-18z"/>
<glyph glyph-name="G" horiz-adv-x="1548" unicode="G" d="M1347 69h-50q-59 0 -118.5 -16t-125.5 -35t-143 -35t-171 -16q-167 0 -294 56.5t-211 155t-120 220.5t-36 246q0 25 1 51q5 93 29.5 186.5t68.5 179t107 159.5t145 129t183 86t220 31q40 0 90 -6.5t102 -19.5t101.5 -31.5t89.5 -43.5h2l-3 87h158l-25 -479h-134 q-9 86 -40 150.5t-78.5 107t-109.5 64.5t-134 22q-107 0 -189 -49t-139 -130t-88 -185.5t-37 -215.5q-2 -32 -2 -62q0 -98 20 -196t70.5 -179t128.5 -126t183 -45q30 0 69 3.5t80.5 10t80.5 17t68 24.5l10 190q1 28 3 55t4 51.5t4.5 44.5t5.5 33l-154 -6l8 158h539l-7 -135 q-35 -2 -60.5 -8t-43.5 -24.5t-28 -53t-13 -92.5z"/>
<glyph glyph-name="H" horiz-adv-x="1642" unicode="H" d="M1382 336q-2 -28 -4 -55t-4 -51.5t-4.5 -44.5t-5.5 -33l154 6l-8 -158h-583l7 135q34 2 61.5 7t47.5 22t31.5 52t14.5 97l18 332l-565 -7l-15 -302q-2 -28 -4 -55t-4 -51.5t-4.5 -44.5t-5.5 -33l154 6l-8 -158h-583l7 135q34 2 61.5 7t47.5 22t31.5 52t14.5 97l41 785 q1 28 3.5 55t4.5 51.5t4.5 44.5t5.5 33l-154 -6l8 158h583l-7 -135q-35 -2 -62 -7t-47 -22t-31.5 -52t-14.5 -97l-17 -321h564l15 298q1 28 3.5 55t4.5 51.5t4.5 44.5t5.5 33l-154 -6l8 158h583l-7 -135q-35 -2 -62 -7t-47 -22t-31.5 -52t-14.5 -97z"/>
<glyph glyph-name="I" horiz-adv-x="787" unicode="I" d="M527 336q-2 -28 -4 -55t-4 -51.5t-4.5 -44.5t-5.5 -33l154 6l-8 -158h-583l7 135q34 2 61.5 7t47.5 22t31.5 52t14.5 97l41 785q1 28 3.5 55t4.5 51.5t4.5 44.5t5.5 33l-154 -6l8 158h583l-7 -135q-35 -2 -62 -7t-47 -22t-31.5 -52t-14.5 -97z"/>
<glyph glyph-name="J" horiz-adv-x="911" unicode="J" d="M708 521q-8 -148 -40.5 -253t-89.5 -172t-137.5 -98t-183.5 -31q-60 0 -112.5 16.5t-90.5 45.5t-57.5 66.5t-19.5 78.5v12q1 33 12 63t29.5 53.5t45.5 38t62 16.5h12q31 0 55.5 -10t41.5 -29t24.5 -43.5t7.5 -50.5q-2 -38 -22 -76q8 -20 28.5 -27t31.5 -7q44 0 69 38 t30 125l43 821q1 28 3.5 55t4.5 51.5t4.5 44.5t5.5 33l-164 -6l8 158h593l-7 -135q-35 -2 -62 -7t-47 -22t-31.5 -52t-14.5 -97z"/>
<glyph glyph-name="K" horiz-adv-x="1456" unicode="K" d="M551 809h149q232 363 252 391t38 49.5t32 32.5v2l-130 -8l8 158h501l-7 -135q-35 -2 -73 -9.5t-79.5 -29t-85.5 -62.5t-90 -109l-212 -314l-1 -3q40 -25 70 -54.5t52 -63.5l193 -297q29 -44 60 -83.5t63 -69.5t65.5 -48.5t68.5 -20.5l-7 -135h-313q-12 1 -36 22 t-51.5 52.5t-55 67.5t-46.5 66l-187 295q-13 19 -27.5 40t-28.5 40.5t-28.5 36t-27.5 26.5l-74 -1l-16 -309q-2 -28 -4 -55t-4 -51.5t-4.5 -44.5t-5.5 -33l154 6l-8 -158h-583l7 135q34 2 61.5 7t47.5 22t31.5 52t14.5 97l41 785q1 28 3.5 55t4.5 51.5t4.5 44.5t5.5 33 l-154 -6l8 158h583l-7 -135q-35 -2 -62 -7t-47 -22t-31.5 -52t-14.5 -97z"/>
<glyph glyph-name="L" horiz-adv-x="1241" unicode="L" d="M72 0l7 135q34 2 61.5 7t47.5 22t31.5 52t14.5 97l41 785q1 28 3.5 55t4.5 51.5t4.5 44.5t5.5 33l-154 -6l8 158h583l-7 -135q-35 -2 -62 -7t-47 -22t-31.5 -52t-14.5 -97l-41 -785q-2 -28 -4 -54.5t-4 -50.5t-4.5 -43.5t-5.5 -32.5l275 1q121 1 194.5 84.5t82.5 250.5 h136l-38 -491h-1087z"/>
<glyph glyph-name="M" horiz-adv-x="1986" unicode="M" d="M1467 1110l-469 -1130h-185l-250 674q-11 28 -26.5 78t-32.5 110t-33.5 126t-27.5 128h-2q-4 -105 -6.5 -201t-8.5 -189l-22 -370q-2 -28 -4 -55t-4.5 -51.5t-5 -44.5t-5.5 -33l156 6l-9 -158h-467l8 135q34 2 61 7t46.5 22t31 52t16.5 97l53 785q2 28 4 55t4.5 51.5 t5 44.5t5.5 33l-156 -6l9 158h439l281 -796q34 -95 55.5 -175.5t41.5 -154.5h2q30 71 58 142t56 137l353 847h477l-7 -135q-35 -2 -63.5 -7t-48.5 -22t-31.5 -52t-12.5 -97l-10 -785q0 -28 -2 -55t-4.5 -51.5t-5.5 -44.5t-6 -33l155 6l-9 -158h-573l8 135q34 2 62.5 7 t48.5 22t31.5 52t12.5 97l6 434q0 18 0.5 59.5t0.5 93.5t0.5 107.5t0.5 102.5h-2z"/>
<glyph glyph-name="N" horiz-adv-x="1581" unicode="N" d="M1334 -20h-174l-611 842q-24 34 -51 72.5t-53 80.5h-2l-30 -639q-2 -28 -4 -55t-4 -51.5t-4.5 -44.5t-5.5 -33l155 6l-9 -158h-467l8 135q34 2 61.5 7t47 22t31.5 52t15 97l36 785q1 28 3.5 55t4.5 51.5t4.5 44.5t5.5 33l-155 -6l9 158h321q633 -860 663.5 -907.5 t53.5 -82.5h2l34 654q1 28 3.5 55t4.5 51.5t4.5 44.5t5.5 33l-155 -6l9 158h466l-7 -135q-35 -2 -62.5 -7t-47 -22t-31.5 -52t-15 -97z"/>
<glyph glyph-name="O" horiz-adv-x="1560" unicode="O" d="M81 717q4 86 27.5 175t67 172t105.5 156.5t144.5 128.5t184 86.5t222.5 31.5q124 0 223 -32t174 -87t127.5 -128.5t85 -156.5t44.5 -172q9 -67 10 -133q0 -21 -1 -41q-4 -85 -28 -173.5t-66.5 -171.5t-104.5 -157t-144 -129t-183 -87t-222 -32q-130 0 -231 31 t-176.5 84.5t-127 126t-82.5 155.5q-30 84 -42 174q-8 63 -9 125q0 27 2 54zM397 741q-2 -27 -2 -55q-1 -39 3 -81q6 -72 22 -142.5t45 -135t72 -114t102 -78.5q57 -28 132 -28h5q71 0 127.5 25.5t100 68.5t75.5 100t53.5 121t33 130.5t14.5 129.5q2 38 2 74q0 99 -14 186 q-19 119 -65.5 205.5t-122.5 134.5q-72 45 -171 45h-12q-70 -2 -126 -28.5t-99.5 -70.5t-75 -102t-52.5 -122.5t-32.5 -132t-14.5 -130.5z"/>
<glyph glyph-name="P" horiz-adv-x="1295" unicode="P" d="M636 665q169 0 249.5 85t88.5 242q1 17 1 33q0 79 -23 134t-63.5 86t-87.5 40t-86 9q-33 0 -58.5 -5t-44.5 -22t-30 -49t-14 -86l-24 -461q22 -2 45 -4t47 -2zM685 519q-47 -2 -80 -2t-69 1l-10 -181q-1 -28 -3 -55.5t-4 -52t-4.5 -44.5t-5.5 -33l174 6l-8 -158h-603 l7 135q34 2 61.5 7t47.5 22t31.5 52t14.5 97l41 785q1 28 3.5 55t4.5 51.5t4.5 44.5t5.5 33l-154 -6l8 158l578 4h10q129 0 234.5 -26.5t179 -83t105.5 -135.5t32 -169q0 -25 -2 -51q-7 -82 -47 -161.5t-114 -143.5t-183.5 -104.5t-254.5 -44.5z"/>
<glyph glyph-name="Q" horiz-adv-x="1564" unicode="Q" d="M398 741q-2 -27 -2 -55q0 -39 4.5 -95.5t20.5 -126t45 -133t72 -111.5t101 -76t133 -28h5q71 0 127.5 25t100 67t75 97.5t53 118.5t33 129t14.5 129q2 39 2 76q0 98 -16 199t-62.5 185.5t-120 129.5t-172.5 45h-13q-70 -2 -126.5 -27.5t-100 -68.5t-74.5 -99.5t-52 -120 t-32.5 -130.5t-14.5 -130zM80 717q4 86 28 175t67.5 172t106 156.5t144.5 128.5t184 86.5t223 31.5q124 0 223 -32t174.5 -87t128.5 -128.5t86 -156.5t44 -161t11 -144q0 -21 -1 -41q-5 -102 -38.5 -208.5t-95 -202t-151.5 -173t-208 -120.5v-2q44 0 79.5 -4t68.5 -16.5 t66 -35t71 -59.5q45 -44 77.5 -76.5t56 -55.5t41 -37t33.5 -22t33 -11t39 -3l-8 -137h-85q-71 0 -118.5 3t-84.5 14t-69.5 33.5t-74.5 60.5q-62 57 -109 111.5t-91.5 97t-92 68t-110.5 25.5q-126 0 -224.5 31t-172 85t-123.5 127t-80 156t-40 159.5t-10 137.5q0 27 2 54z "/>
<glyph glyph-name="R" horiz-adv-x="1394" unicode="R" d="M646 705q85 0 146 18.5t101 57t61 96.5t25 136q1 13 1 26q0 50 -11 91.5t-33.5 72.5t-52 49t-60 27.5t-59 12t-49.5 2.5q-33 0 -58.5 -5t-44.5 -22t-30 -49t-14 -86l-22 -420q24 -3 49 -5t51 -2zM1124 327q31 -52 56.5 -87.5t50 -58t51 -33.5t61.5 -13l-7 -135h-332 q-35 26 -69.5 76.5t-71.5 116.5l-137 245q-24 42 -43.5 70t-36.5 50q-33 -1 -55.5 -1t-52.5 1l-12 -221q-1 -28 -3 -55.5t-4 -52t-4.5 -44.5t-5.5 -33l174 6l-8 -158h-603l7 135q34 2 61.5 7t47.5 22t31.5 52t14.5 97l41 785q1 28 3.5 55t4.5 51.5t4.5 44.5t5.5 33l-154 -6 l8 158l578 4h11q128 0 233 -22.5t178 -75t104.5 -127.5t31.5 -164q0 -25 -2 -52q-5 -65 -31 -125.5t-73.5 -112t-116 -92t-159.5 -65.5v-2q38 -15 73.5 -50.5t61.5 -77.5z"/>
<glyph glyph-name="S" horiz-adv-x="1229" unicode="S" d="M610 115q55 0 101 15t80 41.5t54 61.5t22 75v10q-1 47 -25 83q-28 39 -73.5 69.5t-102.5 55t-114 47.5q-97 40 -179.5 85.5t-141.5 105t-90 135.5q-27 65 -27 149q0 14 1 28q2 42 15 87.5t38 89t64 82.5t94 68.5t126.5 46.5t162.5 17q40 0 85.5 -6t91 -18.5t87 -31 t74.5 -42.5h2l-3 84h158l-25 -479h-134q-19 173 -106 260q-85 85 -225 85h-6q-44 0 -84.5 -13.5t-72 -36.5t-51 -55.5t-21.5 -70.5v-14q0 -41 15 -73q18 -38 57.5 -71.5t100 -65t143.5 -65.5q50 -21 103.5 -45.5t104 -55t95 -67.5t76.5 -82q32 -46 50 -102q14 -45 15 -97 q0 -12 -1 -25q-5 -91 -46.5 -167t-113.5 -130.5t-170.5 -85t-217.5 -30.5q-40 0 -84.5 6.5t-90 19t-90 31.5t-84.5 44h-2l3 -87h-158l25 479h134q9 -86 40 -150.5t78.5 -108t109 -65t133.5 -21.5z"/>
<glyph glyph-name="T" horiz-adv-x="1328" unicode="T" d="M1331 1434l-12 -464h-135q1 18 1 35q0 61 -13 116.5t-44 96t-76.5 60t-103.5 19.5l-98 -1l-50 -960q-2 -28 -4 -55t-4 -51.5t-4.5 -44.5t-5.5 -33l164 6l-8 -158h-593l7 135q34 2 61.5 7t47.5 22t31.5 52t14.5 97l52 981h-95q-58 0 -106 -19.5t-83 -59.5t-56 -101 t-25 -144h-135l36 464h1236z"/>
<glyph glyph-name="U" horiz-adv-x="1547" unicode="U" d="M1359 608q-9 -177 -59 -299t-131 -198t-187.5 -110t-229.5 -34q-115 0 -202.5 22.5t-150.5 64t-103.5 99.5t-63.5 129q-22 70 -30 151q-4 49 -5 100q0 34 2 69l26 496q1 28 3.5 55t4.5 51.5t4.5 44.5t5.5 33l-154 -6l8 158h584l-7 -135q-35 -2 -62 -7t-47 -22t-31.5 -52 t-14.5 -97l-30 -563q-2 -30 -2 -57q1 -91 19 -155q24 -83 66.5 -132t100 -69t119.5 -22h18q74 1 134 23q68 26 117 80t78 138t35 197l28 537q1 28 3.5 55t4.5 51.5t4.5 44.5t5.5 33l-154 -6l8 158h474l-7 -135q-35 -2 -62 -7t-47 -22t-31.5 -52t-14.5 -97z"/>
<glyph glyph-name="V" horiz-adv-x="1438" unicode="V" d="M687 677q40 -116 51.5 -151t22.5 -70t25 -74h2q13 30 27.5 65.5t29 72.5t29.5 74.5l29 72.5l178 429q7 17 17 42t22.5 52t26 51.5t27.5 40.5l1 2l-158 -8l8 158h461l-7 -135q-35 -2 -65.5 -14.5t-58 -38t-53.5 -66.5t-51 -100l-466 -1092h-160l-416 1099q-9 25 -18 52.5 t-16 54t-11 49t-3 39.5l-109 -6l8 158h596l-7 -135h-9q-33 0 -61.5 -7t-47 -25.5t-20.5 -37t-2 -24.5q0 -27 13 -64z"/>
<glyph glyph-name="W" horiz-adv-x="2068" unicode="W" d="M1228 1434q211 -826 224.5 -899.5t26.5 -150.5h2q22 68 46 138t184 574q8 24 17.5 50t21 51t25 46.5t29.5 38.5l1 2l-158 -8l8 158h461l-7 -135q-35 -2 -66.5 -14t-60 -37.5t-54 -66.5t-47.5 -101l-392 -1092h-179l-205 733q-23 81 -35 156.5t-23 145.5h-2 q-15 -70 -32.5 -134t-315.5 -901h-173l-292 1046q-51 157 -64 248q-67 -5 -109 -6l8 158h598l-7 -135h-10q-32 0 -59 -6t-44.5 -23.5t-20.5 -37t-3 -29.5q0 -25 8 -58q120 -565 126.5 -598.5t13 -72t13.5 -87.5h2q5 19 16 53t24.5 75.5t28.5 87t28.5 85.5t24.5 71.5 t239 674.5h183z"/>
<glyph glyph-name="X" horiz-adv-x="1434" unicode="X" d="M687 1299q-56 0 -86 -11t-39.5 -30t-0.5 -44.5t30 -54.5l168 -232h2q190 245 207.5 266t32 36.5t27.5 28t27 24.5v2l-153 -8l8 158h466l-7 -135q-36 -5 -71 -21t-72 -44t-76 -69.5t-83 -97.5l-211 -269l360 -491q32 -44 60 -82t43 -73l79 6l-8 -158h-607l7 135 q56 0 83 11t32.5 30t-6.5 44.5t-34 54.5l-194 264h-2l-192 -248q-23 -29 -40 -50t-30.5 -36.5t-25 -28t-24.5 -24.5v-2l146 8l-8 -158h-451l7 135q58 13 121.5 65.5t143.5 153.5l255 318l-308 417q-32 44 -62.5 92.5t-50.5 100.5l-83 -6l8 158h619z"/>
<glyph glyph-name="Y" horiz-adv-x="1361" unicode="Y" d="M857 568l-12 -232q-2 -28 -4 -55t-4 -51.5t-4.5 -44.5t-5.5 -33l164 6l-8 -158h-593l7 135q34 2 61.5 7t47.5 22t31.5 52t14.5 97l10 179l-347 595q-14 24 -26.5 51t-22 53.5t-15 50t-4.5 40.5l-99 -6l8 158h598l-7 -135q-12 1 -23 1q-31 0 -56 -6q-34 -8 -52 -29 q-19 -21 -20 -52q0 -31 22 -72l143 -257q9 -16 20.5 -38t25.5 -50.5t27 -57.5t20 -51h3q11 23 37.5 72.5t68.5 127.5q155 275 171.5 302t33 52t30.5 41v2l-157 -8l8 158h452l-7 -135q-36 -6 -66 -20t-58.5 -39.5t-57 -65t-61.5 -94.5z"/>
<glyph glyph-name="Z" horiz-adv-x="1234" unicode="Z" d="M542 388q-46 -65 -93 -126.5t-95 -115.5l-1 -2l374 -8h7q53 0 100 15.5t83 51.5t58 94t27 141h135l-35 -438h-1050l8 154l662 934q41 58 76.5 105.5t76.5 95.5l1 2l-351 9h-7q-53 0 -100 -15t-83 -51.5t-58.5 -95t-26.5 -141.5h-135l35 437h1037l-8 -154z"/>
<glyph glyph-name="bracketleft" horiz-adv-x="795" unicode="[" d="M177 1546h655l-8 -145l-395 -6l-102 -1766l408 -6l-8 -145h-661z"/>
<glyph glyph-name="backslash" horiz-adv-x="1623" unicode="\" d="M263 1547l1253 -1998l-146 -104l-1280 1982z"/>
<glyph glyph-name="bracketright" horiz-adv-x="795" unicode="]" d="M603 -522h-655l8 145l395 6l102 1766l-408 6l8 145h661z"/>
<glyph glyph-name="asciicircum" horiz-adv-x="1695" unicode="^" d="M924 1467l627 -573h-275l-451 428h-2l-450 -418h-262l631 563h182z"/>
<glyph glyph-name="underscore" horiz-adv-x="1711" unicode="_" d="M167 -102l1259 -9v-199h-1259v208z"/>
<glyph glyph-name="grave" horiz-adv-x="567" unicode="`" d="M144 1377q-19 19 -33 45q-13 25 -17 52l-2 16q0 20 6 38q8 26 34 48q26 20 52 24q10 2 19 2q15 0 31 -4q24 -8 45.5 -26.5t36.5 -44.5l159 -286l-99 -83z"/>
<glyph glyph-name="a" horiz-adv-x="1125" unicode="a" d="M409 159q38 0 71 33.5t61.5 90t52 131t40.5 157t28.5 167t15.5 161.5q-11 4 -36 8t-49 4q-58 0 -106 -36.5t-82.5 -108.5t-54 -179t-19.5 -248q0 -84 21 -132t57 -48zM964 1003q-7 -51 -17 -119t-20.5 -142.5t-20.5 -151t-18 -145.5t-13 -126t-5 -92q0 -37 9.5 -48.5 t20.5 -11.5q12 0 24.5 8t26 27t27 50.5t26.5 77.5l111 -33q-9 -44 -29.5 -99.5t-55 -104.5t-84 -82.5t-116.5 -33.5q-33 0 -63 8.5t-52.5 30t-36 57.5t-13.5 90q0 27 2 60.5t6 59.5h-2q-38 -89 -79 -148t-85.5 -94t-90.5 -49.5t-93 -14.5q-56 0 -105.5 22.5t-86 69t-58 117 t-21.5 165.5q0 140 41 266t120 221.5t194 152t262 56.5q58 0 134 -11.5t161 -32.5z"/>
<glyph glyph-name="b" horiz-adv-x="1050" unicode="b" d="M605 858q-33 0 -64 -27t-58.5 -75t-50.5 -115.5t-40 -148t-27.5 -172.5t-12.5 -189q8 -4 21 -7.5t27.5 -5.5t28.5 -3.5t24 -1.5q55 0 95 27.5t67 73t43.5 104t25.5 120t11.5 121t2.5 107.5q0 55 -8 92t-21 59.5t-29.5 31.5t-34.5 9zM461 1546q-6 -44 -12.5 -103.5 t-12.5 -119t-17 -173t-15.5 -159.5t-10.5 -95.5t-13 -91.5h2q35 67 75 113.5t80 75.5t78.5 41.5t71.5 12.5q77 0 132 -32.5t90.5 -86.5t52 -125t16.5 -148q0 -138 -30 -261t-96 -216t-171.5 -147t-256.5 -54q-24 0 -63.5 3t-85 9.5t-92.5 17t-87 25.5q31 644 36.5 731.5 t11 181.5t10.5 180t10 137t8 74l-142 -6l8 155q71 0 124.5 6t91.5 15t61.5 19.5t34.5 20.5h111z"/>
<glyph glyph-name="c" horiz-adv-x="956" unicode="c" d="M890 800q0 -62 -35 -100t-95 -40q-35 -1 -59.5 11t-39.5 30.5t-21.5 40t-6.5 39.5t4.5 41.5t15.5 43.5q-8 19 -34.5 32.5t-62.5 13.5q-44 0 -77 -21t-57.5 -55.5t-40.5 -79.5t-25.5 -93.5t-14.5 -96.5t-6 -89q-1 -14 -1 -28q0 -66 13.5 -118.5t38 -89.5t56 -54.5 t63.5 -20.5q9 -1 20 -1q20 0 50 5t67.5 27.5t75 66t69.5 115.5l117 -57q-44 -101 -95.5 -167t-108.5 -105.5t-118 -55.5t-125 -17q-90 1 -164 28t-127 82t-82 139t-29 198q0 66 13.5 138t41 141t69.5 131.5t98 109.5t126.5 75t155.5 28q70 0 131 -17.5t105 -50t69.5 -78 t25.5 -101.5z"/>
<glyph glyph-name="d" horiz-adv-x="1155" unicode="d" d="M902 227q0 -37 9.5 -48.5t20.5 -11.5q23 0 48 35.5t51 127.5l111 -33q-9 -44 -28 -99.5t-52.5 -104.5t-82 -82.5t-115.5 -33.5q-33 0 -63 8.5t-52.5 30t-35.5 57.5t-13 90q0 20 0.5 35.5t1.5 29t2.5 27.5t3.5 31h-2q-37 -90 -80.5 -150t-89 -95t-91 -49.5t-85.5 -14.5 q-77 0 -134 30t-94.5 82.5t-56 124t-18.5 154.5q0 146 33.5 270.5t103.5 215t177 142t253 51.5q7 0 20.5 -0.5t28.5 -1t28 -1t21 -1.5l33 293l-142 -6l8 155q71 0 124.5 6t91.5 15t61.5 19.5t34.5 20.5h111q-111 -959 -120.5 -1045.5t-15.5 -157t-6 -116.5zM599 911 q-58 0 -100.5 -28.5t-71.5 -75.5t-47 -105.5t-27.5 -118.5t-13 -116t-3.5 -96q0 -106 27.5 -157t72.5 -51q55 0 99.5 57.5t78 157t57 233t36.5 284.5q-7 3 -21 6t-30 5.5t-31.5 3.5t-25.5 1z"/>
<glyph glyph-name="e" horiz-adv-x="963" unicode="e" d="M550 912q-52 0 -88.5 -29.5t-61 -76t-38 -104.5t-19.5 -115q83 15 140.5 38.5t92.5 53.5q34 29 50 65q15 33 15 69q1 27 -9 47q-8 18 -21.5 29.5t-29.5 17t-31 5.5zM880 789q0 -56 -23.5 -100t-64 -78t-94 -59.5t-114 -44t-124.5 -31t-124 -21.5q0 -87 16.5 -143.5 t42.5 -89t59 -45t66 -12.5q25 0 59.5 7t71 28t72 60t63.5 103l116 -56q-44 -101 -95.5 -165t-107.5 -100.5t-115 -50.5t-119 -14h-7q-90 0 -162 26q-76 27 -129.5 82.5t-82 140t-28.5 198.5q0 66 13 138t40.5 141t69.5 131.5t99.5 109.5t131 75t163.5 28q68 0 124.5 -15 t97 -46.5t63 -80.5t22.5 -116z"/>
<glyph glyph-name="f" horiz-adv-x="722" unicode="f" d="M145 -23q5 58 10.5 131.5t12 154.5t12.5 166t11.5 165.5t20.5 282.5l-163 -2l18 149h165q13 118 44.5 216t84.5 168.5t130 109t182 38.5q94 0 144 -42t50 -110q0 -18 -7 -40t-22 -41t-39.5 -31.5t-59.5 -11.5q-23 1 -43 10.5t-34 26.5t-20.5 39.5t-2.5 49.5q-8 5 -26 5 q-35 0 -57.5 -38t-36 -96t-21 -125.5t-12.5 -127.5h263l-13 -141l-259 -4q-14 -206 -20 -286.5t-12.5 -165.5t-13.5 -165.5t-14 -153.5t-14 -131q-14 -119 -46 -216.5t-85.5 -168t-130.5 -109t-182 -38.5q-94 0 -144.5 40t-50.5 108q0 18 7 40.5t22 42.5t39.5 33t59.5 12 q23 -1 43 -10.5t34 -26.5t20.5 -39.5t2.5 -49.5q8 -5 26 -5q35 0 57.5 38t36 96t21 125.5t12.5 127.5z"/>
<glyph glyph-name="g" horiz-adv-x="1064" unicode="g" d="M421 159q37 0 70.5 33.5t62.5 90t53 131t42 157t29.5 167t15.5 161.5q-12 5 -39.5 8.5t-53.5 3.5q-71 -1 -121.5 -39t-83 -110.5t-47.5 -179t-15 -243.5q0 -84 25.5 -132t61.5 -48zM391 -420q61 0 101 26.5t65 73.5t39 111.5t23 140.5q7 54 14 100t15 88t18 82t23 81h-2 q-39 -90 -80.5 -149t-85.5 -94t-90 -49t-93 -14q-56 0 -107 22.5t-90 69t-62.5 117t-23.5 165.5q0 142 34 268.5t106.5 221.5t185 150.5t268.5 55.5q29 0 66 -3t78 -8.5t84.5 -14t84.5 -18.5q-2 -49 -6 -119.5t-9.5 -153t-11.5 -172t-12.5 -175.5t-13 -164t-11.5 -137 q-14 -146 -48 -263.5t-96.5 -200.5t-155.5 -128t-225 -45q-76 0 -137.5 13.5t-105 40.5t-67.5 66t-24 90q0 22 8 48.5t24.5 49t43 37.5t62.5 15q55 0 92 -34.5t37 -93.5q0 -14 -3.5 -31t-10.5 -31q5 -8 17 -14.5t26 -11t29 -7t27 -2.5z"/>
<glyph glyph-name="h" horiz-adv-x="1176" unicode="h" d="M374 738q36 92 79 152t89 95t93 48.5t91 13.5q65 0 112 -22.5t77 -63.5t44.5 -99t14.5 -130q0 -57 -8 -122.5t-17.5 -133t-17.5 -133.5t-8 -122q0 -34 10 -44t21 -10q23 0 48 35.5t51 127.5l111 -33q-9 -44 -32.5 -99.5t-62 -104.5t-92.5 -82.5t-123 -33.5 q-57 0 -94 15.5t-59.5 45.5t-31.5 73t-9 97q0 61 8 139t17.5 156.5t17.5 150t8 118.5q0 46 -13 66.5t-45 20.5q-31 0 -64 -33t-65 -88t-60.5 -127.5t-50 -151.5t-34 -159.5t-12.5 -151.5q0 -14 0.5 -34.5t1.5 -41.5t2 -40.5t2 -31.5h-263q-2 21 -3.5 35.5t-2 25t-0.5 19 v18.5q0 84 3 177.5t7.5 189.5t11 191.5t13.5 184t29 281.5t27 214l-143 -6l8 155q71 0 124.5 6t91 15t61 19.5t34.5 20.5h111q-53 -435 -58.5 -477.5t-22.5 -159.5t-29 -171h2z"/>
<glyph glyph-name="i" horiz-adv-x="704" unicode="i" d="M509 809q0 -33 -4.5 -83.5t-12 -108.5t-15.5 -118.5t-15.5 -114.5t-12 -97t-4.5 -66q0 -34 10 -44t21 -10q23 0 48 35.5t51 127.5l111 -33q-9 -44 -32.5 -99.5t-62.5 -104.5t-93 -82.5t-123 -33.5q-57 0 -94.5 15.5t-60 45.5t-32 73t-9.5 97q0 40 5 91t12 106.5t16 112 t16 109.5t12 98.5t5 77.5q0 34 -10 44t-21 10q-23 0 -48 -35.5t-51 -127.5l-111 33q9 44 33 99.5t64 104.5t95 82.5t124 33.5q53 0 89 -17t58.5 -48t32 -75t9.5 -98zM537 1378.5q-1 -20.5 -13 -50.5t-33 -53t-50 -36t-63 -13q-35 0 -63.5 13t-48.5 36t-29.5 50.5t-9.5 56.5 q0 5 1 25.5t15.5 51.5t37 54t51.5 36t60 13q33 0 61 -13t47.5 -36t28.5 -51.5t9 -56.5q0 -6 -1 -26.5z"/>
<glyph glyph-name="j" horiz-adv-x="640" unicode="j" d="M520 809v-55t-0.5 -76.5t-3.5 -117t-7.5 -142.5t-10.5 -144q-8 -90 -22.5 -186.5t-39 -188.5t-62 -174.5t-92.5 -144.5t-129.5 -98.5t-173.5 -36.5q-94 0 -147 41.5t-53 109.5q0 18 6.5 40.5t21.5 43t39.5 34t60.5 12.5q23 -1 44 -11.5t35.5 -29t21 -44t0.5 -56.5 q4 -2 13 -3.5t17 -1.5q26 0 48.5 25t40.5 66.5t32.5 96t26 114.5t19.5 121.5t14 117.5t10 101.5t6 74.5q4 67 8 137t7 136t4.5 125.5t1.5 107.5q0 34 -10 44t-21 10q-23 0 -48 -35.5t-51 -127.5l-111 33q9 44 31.5 99.5t60.5 104.5t91.5 82.5t122.5 33.5q53 0 90.5 -17 t61.5 -48t35 -75t12 -98zM547 1378.5q-1 -20.5 -13 -50.5t-33 -53t-50 -36t-63 -13q-35 0 -63.5 13t-48.5 36t-29.5 50.5t-9.5 56.5q0 5 1 25.5t15.5 51.5t37 54t51.5 36t60 13q33 0 61 -13t47.5 -36t28.5 -51.5t9 -56.5q0 -6 -1 -26.5z"/>
<glyph glyph-name="k" horiz-adv-x="1060" unicode="k" d="M642 911q-26 0 -60.5 -24.5t-69 -72t-65 -117.5t-48.5 -160q76 0 132 20t92 56.5t53.5 89t17.5 118.5q0 42 -13 66t-39 24zM422 982l-33 -181h2q34 67 74.5 114t83.5 76t86 42.5t83 13.5q115 0 168.5 -59t53.5 -159q0 -47 -19.5 -102.5t-65.5 -108t-120.5 -96.5 t-183.5 -68v-2q43 -2 72.5 -14t50 -30t34 -40t22.5 -44q28 -67 49.5 -105t47.5 -38q22 0 43.5 30.5t45.5 110.5l110 -35q-12 -55 -35 -110.5t-56.5 -99.5t-78 -72t-98.5 -28q-45 0 -81 13t-67 44t-58 82t-54 126q-14 34 -25 64.5t-22.5 52.5t-25 35t-31.5 13q-6 0 -10 -1 q-6 -30 -10.5 -65.5t-7 -71.5t-4 -70t-1.5 -61v-32t1 -37t2 -37t3 -32h-267q-2 21 -3 36t-1.5 26t-0.5 39q0 19 2 72t6 130.5t11 175.5t16 207.5t21 226t27 231.5q5 42 13 94t17 98l-146 -6l8 155q71 0 124.5 6t91.5 15t61.5 19.5t34.5 20.5h111z"/>
<glyph glyph-name="l" horiz-adv-x="621" unicode="l" d="M213 1336l-144 -6l8 155q71 0 124 6t90.5 15t61 19.5t34.5 20.5h111q-27 -234 -47.5 -414t-36 -316t-26 -233.5t-16.5 -166t-9 -113.5t-3 -76q0 -37 9.5 -48.5t20.5 -11.5q23 0 48 35.5t51 127.5l111 -33q-13 -52 -36 -108.5t-60.5 -103.5t-91 -77.5t-127.5 -30.5 q-37 0 -70.5 10.5t-59 34t-40.5 61.5t-15 92q0 93 7.5 207t20 240t28 259t57.5 455z"/>
<glyph glyph-name="m" horiz-adv-x="1799" unicode="m" d="M739 138q0 87 7.5 179t16.5 177.5t16.5 158t7.5 119.5q0 46 -13 66.5t-45 20.5q-31 0 -64 -33t-64.5 -88t-60 -127.5t-49.5 -151.5t-33.5 -159.5t-12.5 -151.5q0 -14 0.5 -34.5t5.5 -113.5h-263q-2 21 -4 54.5t-2 43.5q0 44 5.5 106.5t13.5 132.5t18 142t18 136 t13.5 113.5t5.5 74.5q0 34 -9 44t-20 10q-23 0 -48 -35.5t-51 -127.5l-111 33q9 44 27.5 99.5t51 104.5t80.5 82.5t115 33.5q33 0 64 -8.5t55 -30t38.5 -57.5t14.5 -90q0 -20 -1 -35.5t-2.5 -29t-4 -27.5t-4.5 -31h2q36 92 79.5 152t90.5 95t94.5 48.5t91.5 13.5 q115 0 158 -71t43 -163q0 -35 -5 -75h2q36 92 77.5 152t86 95t90 48.5t89.5 13.5q65 0 112 -22.5t77 -63.5t44 -99t14 -130q0 -57 -8 -122.5t-17.5 -133t-17.5 -133.5t-8 -122q0 -34 10 -44t21 -10q23 0 48 35.5t51 127.5l111 -33q-9 -44 -32.5 -99.5t-62 -104.5 t-92.5 -82.5t-123 -33.5q-57 0 -94 15.5t-58.5 45.5t-30.5 73t-9 97q0 61 8 139t17.5 156.5t17.5 150t8 118.5q0 46 -13 66.5t-45 20.5q-31 0 -63.5 -32t-63 -86t-57.5 -125t-47 -149t-32 -158t-12 -151q0 -14 0.5 -33t1.5 -40.5t2 -43.5t3 -41h-265q-5 43 -5.5 80.5 t-0.5 57.5z"/>
<glyph glyph-name="n" horiz-adv-x="1250" unicode="n" d="M736 208q0 61 8 139t17.5 156.5t17.5 150t8 118.5q0 46 -13 66.5t-45 20.5q-31 0 -64 -33t-64.5 -88t-59.5 -127.5t-49 -151.5t-33.5 -159.5t-12.5 -151.5q0 -14 0.5 -34.5t1.5 -41.5t2 -40.5t2 -31.5h-264q-2 21 -3.5 35.5t-2 25t-0.5 19v18.5q0 44 5.5 106.5 t13.5 132.5t18 142t18 136t13.5 113.5t5.5 74.5q0 34 -9 44t-20 10q-23 0 -48 -35.5t-51 -127.5l-111 33q9 44 27.5 99.5t51 104.5t80.5 82.5t115 33.5q33 0 64 -8.5t55 -30t38.5 -57.5t14.5 -90q0 -20 -1 -35.5t-2.5 -29t-4 -27.5t-4.5 -31h2q36 92 78.5 152t88 95t92 48.5 t90.5 13.5q65 0 111.5 -22.5t76.5 -63.5t44 -99t14 -130q0 -57 -8 -122.5t-17.5 -133t-17.5 -133.5t-8 -122q0 -34 10 -44t21 -10q23 0 48 35.5t51 127.5l111 -33q-9 -44 -32.5 -99.5t-62 -104.5t-92.5 -82.5t-123 -33.5q-57 0 -94 15.5t-58.5 45.5t-30.5 73t-9 97z"/>
<glyph glyph-name="o" horiz-adv-x="1055" unicode="o" d="M470 -23q-104 0 -181.5 37t-129 100t-77 148t-25.5 181q0 123 36 232.5t103 192t162.5 131t213.5 48.5q85 0 160.5 -30.5t131 -89t88 -143.5t32.5 -194q0 -122 -35.5 -233t-102 -195.5t-161.5 -134.5t-215 -50zM701 530v25q0 27 -1 55q-2 42 -8.5 84.5t-18 81.5 t-29.5 68.5t-44 47.5t-60 19h-3q-45 0 -81 -32q-38 -33 -64.5 -89t-41 -131t-14.5 -159q0 -62 7.5 -130t26.5 -125t51 -94.5t81 -37.5q35 0 63 19.5t50 51.5t37.5 74.5t26 89t16 93.5t6.5 89z"/>
<glyph glyph-name="p" horiz-adv-x="1178" unicode="p" d="M729 861q-100 0 -164.5 -187.5t-91.5 -548.5q22 -6 46 -9t37 -3q58 0 101 29t73.5 75t49.5 105t30 119t15 115.5t4 96.5q0 112 -28 160t-72 48zM531 -23q-11 0 -30 0.5t-36 1.5q-10 -183 -11.5 -204.5t-3.5 -46.5t-4.5 -51t-5.5 -49l136 6v-156h-519v133q38 0 61.5 13.5 t37 38.5t20 58.5t10.5 74.5q22 240 36.5 414.5t22 294t10.5 189.5t3 103q0 37 -9.5 48.5t-20.5 11.5q-23 0 -48 -35.5t-51 -127.5l-111 33q9 44 27.5 99.5t51 104.5t80 82.5t115.5 33.5q33 0 63.5 -8.5t54 -31t37.5 -61t14 -99.5q0 -30 -2.5 -59t-6.5 -50h2q36 92 80 152 t91 95t93 48.5t87 13.5q73 0 130 -28.5t95 -80.5t58 -123.5t20 -158.5q0 -146 -35.5 -270.5t-107 -215t-180 -142t-254.5 -51.5z"/>
<glyph glyph-name="q" horiz-adv-x="1070" unicode="q" d="M440 163q32 0 63 31t59 84t52.5 125t42.5 153.5t29.5 169.5t14.5 174q-6 3 -18 5t-25 3.5t-25 2t-19 0.5q-83 0 -137 -47.5t-85.5 -123.5t-44 -171t-12.5 -190q0 -63 10.5 -105t26 -66.5t34 -34.5t34.5 -10zM885 -191q-1 -15 -2.5 -36.5t-3.5 -46t-4.5 -50t-5.5 -48.5 l138 6v-156h-518v133q43 0 67 13t37 37t17.5 57t8.5 74q5 45 7.5 88t7.5 100q2 27 5 57t6.5 61.5t7.5 62t9 57.5h-2q-40 -77 -80.5 -124.5t-80.5 -73.5t-78.5 -34.5t-74.5 -8.5q-73 0 -127.5 32.5t-91 86.5t-54.5 124.5t-18 146.5q0 138 34 261.5t105.5 216.5t182.5 147.5 t266 54.5q32 0 73.5 -3t85.5 -8t88.5 -11t82.5 -13z"/>
<glyph glyph-name="r" horiz-adv-x="941" unicode="r" d="M703 858h-5q-27 0 -55.5 -29.5t-56.5 -84t-53 -127.5t-43.5 -153t-29 -161.5t-10.5 -154.5q0 -14 0.5 -34.5t1.5 -41.5t2 -40.5t2 -31.5h-268q-2 21 -3.5 35.5t-2 25t-0.5 19v18.5q0 44 5.5 106.5t13.5 132.5t18 142t18 136t13.5 113.5t5.5 74.5q0 34 -9 44t-20 10 q-23 0 -48 -35.5t-51 -127.5l-111 33q9 44 27.5 99.5t51 104.5t80.5 82.5t115 33.5q33 0 64 -8.5t54.5 -30t38 -57.5t14.5 -90q0 -33 -4.5 -79t-14.5 -104h2q41 117 84 189t86.5 112t85.5 54t80 14t69.5 -11t54 -31.5t35 -49.5t12.5 -65q0 -26 -9.5 -51t-27.5 -44.5 t-43.5 -31.5t-56.5 -12q-23 0 -43.5 7.5t-36 21.5t-24.5 33.5t-8 44.5z"/>
<glyph glyph-name="s" horiz-adv-x="914" unicode="s" d="M174 358q28 0 51 -10t39.5 -27.5t26 -40.5t9.5 -49q0 -33 -13 -60q5 -11 20 -22t34 -19t39 -13t35 -5q45 0 76 11t50 29t27.5 41t8.5 47q0 28 -17 52t-45.5 45.5t-66 43t-77.5 44.5q-73 42 -126.5 78t-88 73.5t-51.5 79.5t-17 96t25.5 106.5t75 94.5t122 68t166.5 26 q62 0 123.5 -15.5t110.5 -44.5t79.5 -71t30.5 -94q0 -27 -9 -51.5t-25.5 -43t-40 -29.5t-53.5 -11q-28 0 -51 10t-39.5 27.5t-25.5 40t-9 47.5q0 32 13 59q-8 11 -21.5 18.5t-29 12.5t-31.5 7.5t-29 2.5q-22 0 -46 -7.5t-44.5 -21t-34 -34t-13.5 -45.5q0 -21 6.5 -37.5 t26.5 -35.5t57.5 -42.5t100.5 -59.5q51 -29 105 -61t98.5 -72t73 -89.5t28.5 -113.5q0 -69 -32.5 -127t-88.5 -100t-133 -65.5t-165 -23.5q-74 0 -140 16.5t-116.5 47.5t-80 75t-29.5 99q0 31 10 57.5t28 45.5t42 29.5t51 10.5z"/>
<glyph glyph-name="t" horiz-adv-x="809" unicode="t" d="M734 1024l-13 -141l-257 -4q-6 -49 -12 -104.5l-12 -111t-11 -109t-9 -100t-6 -84t-2 -60.5q0 -20 2.5 -43.5t12.5 -44t29.5 -34.5t52.5 -14q12 0 33.5 4.5t47.5 18t53.5 39.5t51.5 68l103 -67q-69 -131 -168.5 -195.5t-215.5 -64.5q-84 0 -136 28t-80 74.5t-36 100.5 t-8 106v23q2 52 6.5 120t10.5 143t13.5 153t15.5 152q-42 -1 -88 -1.5t-75 -0.5l18 149q76 0 131.5 23t94.5 64t62.5 97.5t36.5 124.5h139l-42 -309h257z"/>
<glyph glyph-name="u" horiz-adv-x="1225" unicode="u" d="M501 816q0 -41 -4 -89.5t-10 -100.5t-12.5 -105.5t-12.5 -102.5t-10 -92t-4 -74q0 -46 13 -66.5t45 -20.5q28 0 59.5 33t61.5 88t57.5 127.5t48.5 151.5t33 159t12 152q0 14 -0.5 34.5t-1 41.5t-2 40.5t-2.5 31.5h264q2 -21 3.5 -35.5t2 -25t0.5 -19v-18.5 q0 -44 -5.5 -106.5t-14 -132.5t-18.5 -142t-18.5 -136t-14 -113.5t-5.5 -74.5q0 -34 9 -44t20 -10q23 0 48 35.5t51 127.5l111 -33q-9 -44 -27.5 -99.5t-51 -104.5t-80.5 -82.5t-115 -33.5q-33 0 -64 8.5t-55 30t-38.5 57.5t-14.5 90q0 41 3.5 69.5t8.5 63.5h-2 q-36 -92 -76.5 -153.5t-83.5 -98.5t-87.5 -52t-88.5 -15q-65 0 -111.5 22.5t-76.5 63.5t-44 99t-14 130q0 57 8.5 122.5t18 133t18 133.5t8.5 122q0 34 -11 44t-22 10q-23 0 -48 -35.5t-51 -127.5l-111 33q9 44 32.5 99.5t62 104.5t92.5 82.5t123 33.5q57 0 94 -15.5 t59.5 -45.5t31.5 -73t9 -97z"/>
<glyph glyph-name="v" horiz-adv-x="1071" unicode="v" d="M301 1047q59 0 97 -19t60.5 -52t31 -76.5t8.5 -91.5q0 -66 -6 -144.5t-12.5 -155.5t-12.5 -145.5t-6 -114.5q0 -17 2.5 -37t10 -38t22 -29.5t38.5 -11.5q37 1 75 20t74 53.5t67.5 82t55 105.5t37 124.5t13.5 138.5q0 22 -4 45.5t-11 44.5t-16.5 39t-20.5 29 q-17 -14 -40.5 -25.5t-53.5 -11.5q-20 0 -42.5 7t-41 22.5t-30.5 39.5t-12 57q0 21 8 46.5t26 47t48 36t74 14.5q66 0 115.5 -29.5t83.5 -80.5t51 -119t17 -144q0 -70 -16.5 -149.5t-49 -156.5t-79.5 -148t-108 -125t-134.5 -86t-159.5 -32q-70 0 -119 22t-80.5 63.5 t-46 100.5t-14.5 133q0 35 2.5 80t6.5 93t8 97t8 93.5t6.5 81.5t2.5 62q0 34 -11 44t-22 10q-23 0 -48 -35.5t-51 -127.5l-111 33q9 44 32.5 99.5t62 104.5t92.5 82.5t123 33.5z"/>
<glyph glyph-name="w" horiz-adv-x="1628" unicode="w" d="M1029 882q-8 -131 -16.5 -229t-15.5 -172.5t-11.5 -130.5t-4.5 -102q0 -17 4 -37t13 -37.5t25 -29.5t40 -12q35 0 75 19.5t79 54t75 83t63 106.5t43.5 124.5t16.5 136.5q0 45 -14.5 90t-37.5 68q-17 -14 -40.5 -25.5t-53.5 -11.5q-20 0 -42.5 7t-41 22.5t-30.5 39.5 t-12 57q0 21 8 46.5t26 47t48 36t74 14.5q66 0 115.5 -29.5t83.5 -80.5t51 -119t17 -144q0 -73 -19.5 -153t-56 -157.5t-88 -147.5t-115.5 -123t-138.5 -84.5t-157.5 -31.5q-56 0 -96 17.5t-65.5 48t-37 72.5t-11.5 90q0 35 6 71h-2q-22 -83 -58.5 -140t-82.5 -92.5 t-97.5 -51t-103.5 -15.5q-66 0 -113.5 22t-77.5 63.5t-44.5 100.5t-14.5 133q0 35 3.5 79.5t8.5 93t11 97.5t11 93.5t8.5 81.5t3.5 62q0 34 -11 44t-22 10q-23 0 -48 -35.5t-51 -127.5l-111 33q9 44 32.5 99.5t62 104.5t92.5 82.5t123 33.5q59 0 97 -19t60.5 -52t31 -76.5 t8.5 -91.5q0 -66 -7.5 -144.5t-17 -155.5t-17 -145.5t-7.5 -114.5q0 -17 1.5 -37t7 -37.5t17.5 -29.5t33 -12q49 0 87 38t66 100t47 141.5t30.5 162t16.5 161.5t5 141q0 14 -0.5 34.5t-1.5 41.5t-2 40.5t-2 31.5h264q3 -31 4.5 -48.5t1.5 -31.5v-62z"/>
<glyph glyph-name="x" horiz-adv-x="1113" unicode="x" d="M659 561q15 -40 32 -83.5t35 -85.5t36 -80t34 -67q26 -46 44 -62t35 -16q14 0 25.5 6t21.5 23t17.5 47t13.5 78l115 -15q-3 -30 -10 -66t-20.5 -72.5t-34 -71t-51 -61t-72 -42.5t-96.5 -16q-46 0 -82 17t-64 44.5t-49 63.5t-37 75l-64 153h-2q-39 -116 -76 -185.5 t-73 -106.5t-71 -49t-70 -12q-37 0 -67 10.5t-51.5 29t-33 44.5t-11.5 58q0 31 10.5 57.5t28 45.5t40.5 29.5t49 10.5q50 0 78 -24t38 -51q15 10 30.5 34t33 64t38.5 97t47 133q-16 43 -51 142.5t-48 129.5q-10 21 -18.5 34.5t-16.5 21t-16.5 10.5t-18.5 4q-14 0 -27 -6.5 t-25 -24t-21.5 -47.5t-15.5 -76l-115 15q3 30 11.5 66t23.5 72.5t38 71t55.5 61t75 42.5t97.5 16q42 0 73.5 -13t55 -36.5t41 -56.5t32.5 -73q6 -15 10.5 -28t9.5 -28t10.5 -35t13.5 -48q43 109 83 172.5t76 96t67.5 41t58.5 8.5q37 0 64 -10.5t45 -29.5t26.5 -44t8.5 -55 q0 -26 -10.5 -49.5t-28 -41.5t-41 -28.5t-49.5 -10.5q-38 0 -61.5 13t-38.5 30q-14 -11 -27.5 -28t-29.5 -47t-36.5 -75t-47.5 -110z"/>
<glyph glyph-name="y" horiz-adv-x="1148" unicode="y" d="M542 833q22 -52 51 -128t59 -166.5t56.5 -190t43.5 -198.5h2q63 141 97 267.5t38.5 184t5 76.5t-2 40t-8 40.5t-16.5 32.5q-32 -6 -59.5 1t-48.5 23.5t-33 40.5t-12 51q0 36 12.5 62t32.5 43.5t45.5 26t51.5 8.5q57 0 96 -25.5t64 -66t36 -92.5t11 -104q0 -71 -18 -165 t-51.5 -199.5t-80.5 -217t-104 -217t-123 -199t-137.5 -164t-147 -111.5t-151.5 -41q-94 0 -143.5 44.5t-49.5 114.5q0 33 11.5 59.5t30 45.5t42 29t47.5 10q54 0 85.5 -29t39.5 -82q24 -7 50.5 2.5t53 29t52 46.5t47.5 56t39 56.5t26 48.5q-15 98 -48 212t-74.5 230 t-86.5 226.5t-85 200.5q-7 16 -16.5 35.5t-21.5 36.5t-26.5 28.5t-31.5 11.5q-14 0 -28 -6t-26.5 -23t-22 -47t-15.5 -78l-115 15q3 30 12 66t24.5 72.5t39 71t56.5 61t76 42.5t98 16q50 0 89.5 -19t70 -49.5t53 -68.5t38.5 -77z"/>
<glyph glyph-name="z" horiz-adv-x="1006" unicode="z" d="M646 573q-66 -83 -124.5 -145.5t-110 -111.5t-96.5 -86.5t-84 -69.5h2q43 33 79.5 53.5t68 32t58.5 15t51 3.5q38 0 68 -8t57 -17t52.5 -17t54.5 -8q30 0 49 15.5t27 40t5.5 55.5t-15.5 62l104 35q12 -32 20.5 -70t8.5 -85q0 -55 -15.5 -107t-47 -92.5t-79 -65.5 t-110.5 -25q-43 0 -93 9.5t-101.5 21t-102 21t-93.5 9.5q-12 0 -28.5 -1.5t-36 -7.5t-42.5 -18.5t-48 -33.5l-88 82q34 51 83.5 115.5t104 133t110 135t103.5 122.5q51 59 90 99t73.5 72.5t68.5 62t74 67.5h-2q-41 -34 -75 -55.5t-63.5 -33.5t-55.5 -16.5t-50 -4.5 q-32 0 -60 8t-54.5 17t-52.5 17t-55 8q-30 0 -49 -15.5t-28 -40t-7.5 -55.5t12.5 -62l-103 -35q-24 64 -24 159q0 55 15.5 107t47 92.5t79 65.5t110.5 25q43 0 89.5 -9.5t94.5 -21t95 -21t91 -9.5q12 0 30 1.5t39.5 7.5t46 18.5t49.5 33.5l87 -82z"/>
<glyph glyph-name="braceleft" horiz-adv-x="707" unicode="{" d="M472 779q-2 -53 -19 -93t-45.5 -70.5t-68 -52.5t-85.5 -39v-2q45 -20 80.5 -44.5t60 -56t37.5 -71.5t13 -92q0 -15 -3 -42.5t-8 -62t-10 -73.5t-10 -76.5t-8 -71.5t-3 -58q0 -57 12 -110t39 -94t72 -65.5t111 -24.5l-9 -135h-100q-101 0 -169.5 34t-110.5 93.5t-60 141 t-18 176.5q0 15 2.5 48t7 75.5t9 89.5t9 89.5t7 76.5t2.5 50q0 29 -6 53.5t-20 42.5t-36.5 28t-55.5 10h-95l11 136h89q38 0 63.5 9t41 27t23 44.5t9.5 61.5v32t-0.5 62.5t-1 79t-1 80.5t-0.5 67v39q0 108 22 194t70 146.5t124 92.5t183 32h103l-7 -135q-71 0 -120.5 -26 t-81 -71.5t-45.5 -107t-14 -131.5q0 -21 1.5 -57t3.5 -77t3.5 -81.5t1.5 -68.5v-22z"/>
<glyph glyph-name="bar" horiz-adv-x="480" unicode="|" d="M403 1556l-118 -2111h-215l105 2111h228z"/>
<glyph glyph-name="braceright" horiz-adv-x="706" unicode="}" d="M218 222q2 53 19 93t45.5 70.5t68 52.5t85.5 39v2q-45 20 -80.5 44.5t-60 56t-37.5 71.5t-13 92q0 15 3 42.5t8 62t10 73.5t10 76.5t8 71.5t3 58q0 57 -12 110t-39 94t-72 65.5t-111 24.5l9 135h100q101 0 169.5 -34t110.5 -93.5t60 -141t18 -176.5q0 -15 -2.5 -48 t-7 -75.5t-9 -89.5t-9 -89.5t-7 -76.5t-2.5 -50q0 -29 6 -53.5t20 -42.5t36.5 -28t55.5 -10h95l-11 -136h-89q-38 0 -63.5 -9t-41 -27t-23 -44.5t-9.5 -61.5v-32t0.5 -62.5t1 -79t1 -80.5t0.5 -67v-39q0 -108 -22 -194t-70 -146.5t-124 -92.5t-183 -32h-103l7 135 q71 0 120.5 26t81 71.5t45.5 107t14 131.5q0 21 -1.5 57t-3.5 77t-3.5 81.5t-1.5 68.5v22z"/>
<glyph glyph-name="asciitilde" horiz-adv-x="1105" unicode="~" d="M348 568q-42 0 -76.5 -8t-65 -21.5t-58.5 -31.5t-57 -38l12 236q34 26 64.5 46.5t61.5 34.5t65 21t75 7q55 0 95.5 -11.5t71.5 -28.5t56.5 -37.5t52.5 -37.5t58 -28.5t73 -11.5q67 0 128 26.5t112 71.5l-13 -236q-45 -48 -106.5 -77.5t-142.5 -29.5q-51 0 -89.5 11.5 t-70 28.5t-58.5 37t-55 37t-60 28.5t-73 11.5z"/>
<glyph glyph-name="uni00A0" horiz-adv-x="539" unicode=" "/>
<glyph glyph-name="exclamdown" horiz-adv-x="481" unicode="¡" d="M167.02 587.026h136.992l32.9971 -843.948v-6q-0.999023 -29.998 -8.99902 -59.9961q-9.99902 -32.998 -28.998 -59.4961t-48.4971 -43.4971t-68.4961 -16.999q-40.9971 0 -68.9961 16.999q-27.998 16.999 -43.9971 43.4971t-20.998 59.4961q-2 15.999 -2 32.498 t2 33.498zM106.023 898.008q2 32.998 15.499 61.9961t35.498 50.4971q21.998 21.499 49.4971 33.998q27.498 12.499 56.4961 12.499q29.998 0 55.4971 -12.499q25.498 -12.499 43.9971 -33.998t28.498 -50.4971q8 -23.998 8 -50.9971v-10.999q-1 -32.998 -14.5 -62.4961 q-13.499 -29.498 -34.9971 -51.4971q-21.499 -21.999 -48.4971 -34.498q-26.999 -12.499 -56.9971 -12.499q-31.998 0 -57.9961 12.499q-25.999 12.499 -44.4971 34.498q-18.499 21.999 -27.499 51.9971q-7.99902 26.998 -7.99902 54.9961v7z"/>
<glyph glyph-name="cent" horiz-adv-x="999" unicode="¢" d="M905 800q0 -63 -36 -101.5t-99 -38.5q-34 0 -57 12.5t-37.5 30.5t-21 39t-6.5 39t4.5 41.5t15.5 43.5q-8 19 -34.5 32.5t-62.5 13.5q-46 0 -80.5 -23t-59 -61t-40.5 -87t-25.5 -100t-13 -100.5t-3.5 -89.5q0 -84 18 -139.5t46.5 -88t62.5 -45.5t66 -13q28 0 61.5 9t68 33 t68 65.5t62.5 106.5l117 -57q-38 -86 -81 -146.5t-90 -101t-98 -62t-104 -29.5l-28 -257h-197l27 267q-64 16 -115.5 50.5t-87.5 88t-55.5 126.5t-19.5 166q0 58 10.5 121t32 125t54 119.5t76 106t98 84t120.5 52.5l24 248h210l-26 -242q52 -10 95.5 -31t74.5 -52t48.5 -70 t17.5 -85z"/>
<glyph glyph-name="sterling" horiz-adv-x="1127" unicode="£" d="M513 617q3 -11 3.5 -22t0.5 -21q0 -42 -10.5 -87.5t-30.5 -88.5t-50 -80t-70 -64v-2q59 26 100 34.5t76 8.5q51 0 91.5 -16t75.5 -35.5t67 -35.5t67 -16q12 0 25.5 7t25.5 21.5t21.5 37t12.5 52.5h127q-7 -76 -27 -139t-52 -108.5t-76.5 -70.5t-101.5 -25q-41 0 -78.5 13 t-73.5 32.5t-71.5 42t-71.5 43t-74.5 34.5t-81.5 16q-12 -38 -31 -70.5t-43 -57.5t-51 -39t-54 -14q-30 0 -51 8.5t-34 23t-18.5 33.5t-5.5 40q0 33 14 61t39 51.5t59 43t75 34.5q11 18 19.5 42t14 48t8.5 46.5t3 38.5q0 48 -5 94t-12 82l-161 -3l10 158h114q-7 35 -10.5 73 t-3.5 83q0 129 37.5 230t100.5 170.5t146 106t174 36.5q92 0 155.5 -24t102.5 -60t56.5 -78.5t17.5 -78.5q0 -35 -10 -65.5t-29 -53t-46 -35t-61 -12.5q-35 0 -59 12t-39 29.5t-21.5 38.5t-6.5 39q0 27 10.5 59t32.5 57q-10 12 -32 22.5t-57 10.5q-48 0 -82 -18t-57.5 -48 t-37.5 -68.5t-21 -79t-9.5 -80t-2.5 -71.5q0 -54 4 -102t11 -93h325l-8 -145z"/>
<glyph glyph-name="currency" horiz-adv-x="1133" unicode="¤" d="M572 783q-32 0 -55.5 -15.5t-40.5 -40t-28 -54.5t-17 -59.5t-8.5 -54.5t-2.5 -40q0 -38 5.5 -80.5t19.5 -78.5t38 -60t62 -24q29 0 51.5 14.5t40 38t29.5 54t19.5 62.5t11 63t3.5 55q0 31 -5.5 69t-20 71.5t-39.5 56.5t-63 23zM279 999l96 -128q43 26 93.5 41t110.5 15 t108.5 -15.5t90.5 -41.5l109 128l139 -121l-132 -141q50 -94 50 -194q0 -63 -17 -123.5t-49 -112.5l111 -134l-151 -116l-92 123q-91 -53 -210 -53q-60 0 -110 13.5t-92 38.5l-103 -122l-140 116l125 134q-23 42 -34 90.5t-11 99.5q0 63 18.5 126t54.5 120l-116 141z"/>
<glyph glyph-name="yen" horiz-adv-x="1446" unicode="¥" d="M890 284q-3 -42 -7 -77t-8 -55l164 6l-8 -158h-593l7 135q32 1 58 5.5t45.5 19t32 43.5t17.5 80l-218 -1l9 159l218 -1l6 102l-223 -1l9 159l107 -1l-243 388q-15 23 -27.5 50t-22 54t-14.5 50.5t-4 40.5q-33 -2 -55 -3.5t-44 -2.5l8 158h598l-7 -135q-11 1 -22 1 q-32 0 -62 -8t-49 -28.5t-19 -51.5q0 -30 23 -71q172 -313 185 -339.5t26 -54t21 -49.5h12q13 26 38 72.5t121.5 219t113 199.5t33 52t30.5 41v2l-157 -8l8 158h452l-7 -135q-36 -6 -66 -20t-58.5 -39.5t-57 -65t-61.5 -94.5l-220 -383l143 -1l-7 -151l-211 -2l-6 -105 l214 -1l-7 -151z"/>
<glyph glyph-name="brokenbar" horiz-adv-x="510" unicode="¦" d="M346 231l-49 -786h-212l35 786h226zM416 1557l-50 -790h-212l36 790h226z"/>
<glyph glyph-name="section" horiz-adv-x="1079" unicode="§" d="M670 -155q0 44 -16.5 81t-43.5 67.5t-61.5 56t-71.5 48t-73 42.5t-65 40q-53 35 -102 75t-87.5 88.5t-61.5 108.5t-23 134q0 43 12 90t34.5 94t55.5 91.5t74 82.5q-22 30 -35.5 57.5t-20.5 54t-9.5 53.5t-2.5 57q1 39 12 83t33.5 87.5t57 83t81.5 70t107.5 48.5t135.5 18 q82 0 149 -23t115 -60t74 -84t26 -96q0 -31 -9 -59.5t-26.5 -50.5t-43 -35t-58.5 -13t-56.5 11.5t-37.5 29t-20.5 37.5t-6.5 37q0 23 6 46t21 45q-14 32 -50.5 51t-82.5 19q-48 0 -85 -16t-62.5 -41.5t-38.5 -56.5t-13 -61q0 -68 34.5 -117.5t85.5 -88.5t110 -72.5 t107 -69.5q72 -54 122 -99.5t82 -93.5t46.5 -103.5t14.5 -128.5q0 -36 -13.5 -80.5t-37.5 -90t-56 -89t-68 -78.5q11 -19 23.5 -40t23 -46t17 -53.5t6.5 -62.5q0 -39 -9.5 -83.5t-30 -87.5t-54 -83t-82 -70t-112 -48t-145.5 -18t-149 23t-115 60t-74 84t-26 96q0 30 9 59 t26.5 51.5t43 36t58.5 13.5t56.5 -12t37.5 -29.5t20.5 -38t6.5 -37.5q0 -23 -6 -46.5t-21 -44.5q7 -16 21 -29t32.5 -22t40.5 -14t45 -5q47 0 83.5 14.5t61.5 38t38.5 53.5t15.5 61zM304 658q0 -52 22 -95t57.5 -80.5t81.5 -69.5t93.5 -61t92.5 -56.5t80 -55.5q8 15 14.5 38 t11.5 47.5t8 48t3 39.5q0 52 -22 95.5t-57.5 80.5t-81 68.5t-93 60t-93 56t-80.5 55.5q-8 -15 -15 -37.5t-12 -46.5t-7.5 -47.5t-2.5 -39.5z"/>
<glyph glyph-name="dieresis" horiz-adv-x="850" unicode="¨" d="M238 1228q-27 0 -50 11t-39.5 30.5t-26 46t-9.5 57.5q0 33 12 63t31.5 52.5t45.5 36t54 13.5t50.5 -11.5t38.5 -31t25 -45.5t9 -56q0 -35 -11 -65t-30 -52.5t-45 -35.5t-55 -13zM594 1228q-27 0 -50 11t-39.5 30.5t-26 46t-9.5 57.5q0 33 12 63t31.5 52.5t45.5 36 t54 13.5t50.5 -11.5t38.5 -31t25 -45.5t9 -56q0 -35 -11 -65.5t-30 -53t-45 -35t-55 -12.5z"/>
<glyph glyph-name="copyright" horiz-adv-x="1822" unicode="©" d="M219 697q-1 -23 -1 -46q0 -122 39 -244t125.5 -221t214.5 -156.5t291 -57.5q159 0 289.5 57.5t225.5 156.5t150 231t63 280q1 22 1 45q0 75 -15 157t-53 163t-95.5 148.5t-132 116t-166 75t-196.5 26.5q-104 0 -198 -26.5t-174.5 -75t-146 -116t-113 -148.5t-75.5 -173.5 t-33 -191.5zM74 697q6 117 41 225t93.5 202.5t139 172t178 133t209 86t233.5 30.5q185 0 335 -67.5t254.5 -183.5t153.5 -259.5t49 -291.5q0 -25 -1 -50q-6 -116 -41 -223.5t-94.5 -201t-139.5 -170t-176.5 -131t-205.5 -84.5t-226 -30q-125 0 -235 28.5t-201.5 81.5 t-162 128.5t-118 169.5t-67 192t-19.5 191q0 26 1 52zM967 1071q-54 0 -104.5 -27t-89.5 -74.5t-64 -113t-29 -141.5v-19q0 -59 17 -118t55 -108t94 -78.5t128 -30.5h7q71 0 149 37t143 113l82 -83q-55 -70 -115.5 -115.5t-119.5 -72.5t-114 -37.5t-98 -10.5q-107 0 -195 39 t-150 106.5t-91.5 152t-29.5 170.5q0 16 1 33q3 60 20 122.5t47 121t73.5 109t100 88t121.5 56t136 18.5h21q62 -2 121 -17.5t111 -53.5q0 6 0.5 33.5t0.5 30.5h146l-19 -359h-126q-5 61 -26 104.5t-52.5 71.5t-70.5 40.5t-80 12.5z"/>
<glyph glyph-name="ordfeminine" horiz-adv-x="831" unicode="ª" d="M356 895q19 0 37 20.5t34.5 56t31 81.5t25.5 97.5t18.5 104.5t10.5 101q-8 3 -28.5 6t-36.5 2q-28 -2 -52.5 -20t-43 -59t-31 -108t-15.5 -166v-14q0 -44 12 -73t38 -29zM722 1439q-5 -33 -11.5 -79t-14 -96.5t-14.5 -103.5t-13 -100.5t-9.5 -86t-3.5 -60.5q0 -23 6 -31 t14 -8q15 0 34.5 22.5t36.5 81.5l68 -20q-6 -28 -20 -64t-38 -67.5t-59 -53.5t-81 -22q-58 0 -88.5 27t-30.5 94q0 17 2 38.5t5 38.5h-1q-24 -57 -50 -95.5t-53 -61t-55.5 -32t-58.5 -9.5q-36 0 -70 14.5t-60.5 44.5t-43 75.5t-16.5 107.5q0 103 27 190t78 150t125.5 98.5 t169.5 35.5q19 0 46 -2t58 -5.5t62.5 -8.5t58.5 -12z"/>
<glyph glyph-name="guillemotleft" horiz-adv-x="1001" unicode="«" d="M484.031 530.035l2 46.9971l370.977 408.976l81.9951 -68.9961l-227.985 -354.979v-3l187.988 -355.978l-88.9951 -69.9961zM34.0586 525.035l2 47.9971l576.965 568.966l81.9951 -88.9941l-412.976 -506.97v-2l353.979 -485.97l-89.9941 -83.9951z"/>
<glyph glyph-name="logicalnot" horiz-adv-x="1174" unicode="¬" d="M126 735l920 -5l-22 -418h-173l7 238l-742 -3z"/>
<glyph glyph-name="uni00AD" horiz-adv-x="969" unicode="­" d="M117 757h751l-11 -200l-751 -7z"/>
<glyph glyph-name="registered" horiz-adv-x="1822" unicode="®" d="M219 697q-1 -23 -1 -46q0 -122 39 -244t125.5 -221t214.5 -156.5t291 -57.5q159 0 289.5 57.5t225.5 156.5t150 231t63 280q1 22 1 45q0 75 -15 157t-53 163t-95.5 148.5t-132 116t-166 75t-196.5 26.5q-104 0 -198 -26.5t-174.5 -75t-146 -116t-113 -148.5t-75.5 -173.5 t-33 -191.5zM74 697q6 117 41 225t93.5 202.5t139 172t178 133t209 86t233.5 30.5q185 0 335 -67.5t254.5 -183.5t153.5 -259.5t49 -291.5q0 -25 -1 -50q-6 -116 -41 -223.5t-94.5 -201t-139.5 -170t-176.5 -131t-205.5 -84.5t-226 -30q-125 0 -235 28.5t-201.5 81.5 t-162 128.5t-118 169.5t-67 192t-19.5 191q0 26 1 52zM871 725q102 0 157.5 49.5t60.5 140.5v16q0 49 -17 80.5t-44.5 48.5t-58 21.5t-51.5 4.5t-37.5 -5t-27.5 -17.5t-17.5 -34t-8.5 -54.5l-13 -244q17 -4 28.5 -5t28.5 -1zM1182 461q21 -35 37 -59t31 -39.5t32 -23 t41 -8.5l-5 -90h-210q-23 19 -48 52t-49 77q-42 77 -65 121t-34.5 67.5t-16 33t-9.5 17.5q-22 -1 -39 -1t-39 1l-8 -141q-2 -37 -4 -72t-4 -52l116 4l-6 -107h-408l5 90q24 1 42.5 4.5t31.5 15.5t21 35.5t10 65.5l27 518q2 40 5.5 74.5t6.5 51.5q-11 -1 -104 -4l6 107l382 1 q90 0 162 -15t120.5 -50.5t69 -85.5t20.5 -108q0 -18 -2 -37q-4 -44 -18.5 -84.5t-43 -75.5t-72 -62.5t-104.5 -44.5v-1q26 -11 43.5 -34.5t34.5 -52.5z"/>
<glyph glyph-name="macron" horiz-adv-x="775" unicode="¯" d="M101 1478h582l-9 -183l-582 -7z"/>
<glyph glyph-name="degree" horiz-adv-x="786" unicode="°" d="M95 1139q3 70 33 130t78.5 104t111 69t130.5 25q76 0 136 -25t101 -69t59.5 -100t18.5 -116v-18q-4 -70 -34 -130.5t-79 -105t-111.5 -70t-130.5 -25.5q-76 0 -135.5 25.5t-100.5 70t-59.5 100t-18.5 112.5q0 11 1 23zM266 1133q0 -39 10 -72.5t29.5 -57.5t47.5 -37.5 t64 -13.5q39 0 71 15.5t55.5 42t36 61.5t12.5 75q0 83 -41 132t-114 49q-35 0 -66.5 -16t-54.5 -42.5t-36.5 -61.5t-13.5 -74z"/>
<glyph glyph-name="plusminus" horiz-adv-x="1114" unicode="±" d="M984 1h-921l9 174l921 8zM103 757l361 -2l16 299h195l-16 -299l364 -1l-9 -183l-364 -2l-17 -315h-195l17 314l-362 -1z"/>
<glyph glyph-name="twosuperior" horiz-adv-x="770" unicode="²" d="M304 1321q14 -13 19 -33t5 -33t-5.5 -30.5t-18.5 -33t-33 -26.5t-49 -11q-46 0 -69.5 29.5t-23.5 72.5q0 31 19.5 68t57 68.5t92.5 53t127 21.5q50 0 98 -11t85.5 -34.5t60 -61.5t22.5 -92q0 -44 -13 -80t-36.5 -66t-54.5 -57.5t-66.5 -55t-74.5 -58t-77 -66.5 q-29 -27 -47.5 -49t-33.5 -49l248 -5q13 0 24.5 2.5t20 10.5t13.5 23t6 40h97l-24 -240h-571q4 71 24 125t50.5 97.5t69.5 80.5t81 73q45 39 73.5 75.5t44.5 69t21.5 59.5t5.5 47q0 55 -27 80.5t-69 25.5q-20 0 -42 -8.5t-30 -21.5z"/>
<glyph glyph-name="threesuperior" horiz-adv-x="747" unicode="³" d="M89 797q1 22 9.5 43t22.5 37t33.5 26t42.5 11q28 1 46.5 -8t29.5 -24t15 -33.5t3 -36.5q0 -6 -2 -15t-6 -19.5t-10 -20.5t-15 -17q7 -10 18.5 -17t24.5 -11t25 -6t20 -2q31 0 57 11t45 30t30 45t13 56v8q-1 59 -41 98q-44 41 -124 42q-16 0 -36.5 -1t-32.5 -2l6 110 l36 -2t35 -1q39 0 66.5 13.5t45.5 34t26.5 45.5t9.5 49v7q0 51 -27 81q-29 32 -81 32q-27 0 -46 -9t-27 -16q16 -14 21 -35t4 -32q-1 -14 -7 -31t-18.5 -32t-32 -25t-47.5 -9q-47 3 -72 31q-23 26 -23 66v7q1 29 19.5 63t54 62.5t88.5 47.5t125 19q59 0 109 -13t86 -40 q35 -28 54 -68q16 -35 16 -80v-14q-2 -30 -15 -58.5t-35 -53t-50.5 -43t-61.5 -26.5l-1 -2q96 -19 139.5 -72.5t43.5 -129.5q0 -57 -22.5 -106t-66.5 -85t-109 -57t-150 -21q-63 0 -112.5 17t-83 44.5t-50.5 63.5q-15 32 -15 66v8z"/>
<glyph glyph-name="acute" horiz-adv-x="597" unicode="´" d="M182 1158l-89 83l182 286q17 26 41 45q24 18 51 26q17 5 34 5q9 1 19 -1q26 -4 50 -26q24 -20 30 -48q4 -15 4 -30q0 -13 -2 -26q-6 -28 -22 -54t-38 -44z"/>
<glyph glyph-name="mu" horiz-adv-x="1222" unicode="µ" d="M999 1024l-40 -733q-1 -12 -1.5 -30t3 -34.5t13 -28t29.5 -11.5q14 0 33 7t44 29l65 -86q-19 -25 -47 -51t-61.5 -47.5t-71.5 -35.5t-77 -14q-60 0 -101.5 30.5t-54.5 100.5h-2q-63 -73 -127 -112t-121 -39q-107 0 -158 143h-2q0 -85 8.5 -164.5t18.5 -147t17.5 -116.5 t7.5 -77v-7q-2 -29 -9.5 -57t-24 -49.5t-42.5 -35t-63 -13.5q-39 0 -65 15.5t-41 43.5t-19 60t-4 60q0 17 1 35l71 1365h250l-29 -558q-2 -28 -2 -53q0 -38 5 -83t21 -85t43 -62t65 -22q19 0 41.5 4t46 13t46.5 23.5t43 35.5l41 787h250z"/>
<glyph glyph-name="mu" horiz-adv-x="1222" unicode="μ" d="M999 1024l-40 -733q-1 -12 -1.5 -30t3 -34.5t13 -28t29.5 -11.5q14 0 33 7t44 29l65 -86q-19 -25 -47 -51t-61.5 -47.5t-71.5 -35.5t-77 -14q-60 0 -101.5 30.5t-54.5 100.5h-2q-63 -73 -127 -112t-121 -39q-107 0 -158 143h-2q0 -85 8.5 -164.5t18.5 -147t17.5 -116.5 t7.5 -77v-7q-2 -29 -9.5 -57t-24 -49.5t-42.5 -35t-63 -13.5q-39 0 -65 15.5t-41 43.5t-19 60t-4 60q0 17 1 35l71 1365h250l-29 -558q-2 -28 -2 -53q0 -38 5 -83t21 -85t43 -62t65 -22q19 0 41.5 4t46 13t46.5 23.5t43 35.5l41 787h250z"/>
<glyph glyph-name="paragraph" horiz-adv-x="1141" unicode="¶" d="M1016 1434l-107 -1956h-225l98 1814l-192 -2q-8 -137 -16 -287t-16.5 -305.5t-17.5 -314.5t-17.5 -314.5t-16.5 -305t-15 -285.5h-227l76 1343q-49 9 -95 29t-80.5 56t-52.5 85t-18 109q0 12 1 25q4 79 33.5 137t75.5 96t103 57t116 19h593z"/>
<glyph glyph-name="periodcentered" horiz-adv-x="465" unicode="·" d="M384 683.5q-1 -19.5 -12.5 -48.5t-31.5 -50.5t-47.5 -34t-60.5 -12.5q-34 0 -61 12.5t-46 34t-28 48t-9 53.5q0 5 1 24.5t14.5 49t35.5 51.5t49.5 34.5t57.5 12.5q32 0 58.5 -12.5t45 -34.5t27 -49t8.5 -54q0 -5 -1 -24.5z"/>
<glyph glyph-name="cedilla" horiz-adv-x="676" unicode="¸" d="M440 -109q32 -1 59 -9.5t46 -26t28 -42t9 -53.5v-12q-3 -48 -28 -85.5t-65.5 -66.5t-91 -50.5t-103 -36.5t-102.5 -24.5t-90 -14.5l-10 106q16 3 41 8t53 12.5t56.5 17.5t51.5 23.5t38 30.5t16 38q1 26 -15 37.5t-39 12t-47.5 -7.5t-39.5 -20l-75 32l77 260h156l-69 -161 h2q13 7 31.5 13t38.5 10.5t39 6.5t33 2z"/>
<glyph glyph-name="onesuperior" horiz-adv-x="565" unicode="¹" d="M120 1191l-36 80l304 196h71l-35 -658q-2 -32 -4.5 -61t-4.5 -44l88 3l-5 -90h-359l4 77q19 1 34.5 4t27 13t18 30t8.5 55l24 471z"/>
<glyph glyph-name="ordmasculine" horiz-adv-x="754" unicode="º" d="M379 746q-71 0 -123.5 25.5t-88 69t-53 101.5t-17.5 123q0 81 24.5 153.5t70 128t109.5 88t143 32.5q58 0 109 -21t89.5 -61t61 -98t22.5 -131q0 -80 -24.5 -154t-69.5 -131t-109 -91t-144 -34zM510 1126q0 112 -18.5 174.5t-63.5 62.5q-26 0 -47.5 -20t-36.5 -57 t-23.5 -88t-8.5 -113q0 -52 4.5 -94.5t14.5 -73t25.5 -47t38.5 -16.5q29 0 50.5 22t36 59t21.5 86.5t7 104.5z"/>
<glyph glyph-name="guillemotright" horiz-adv-x="1003" unicode="»" d="M509 578l-2 -47l-371 -409l-82 69l228 355v3l-188 356l89 70zM959 583l-2 -48l-577 -569l-82 89l413 507v2l-354 486l90 84z"/>
<glyph glyph-name="onequarter" horiz-adv-x="1597" unicode="¼" d="M1363 1361l-983 -1394l-124 96l977 1404zM136 1191l-36 80l304 196h71l-35 -658q-2 -32 -4.5 -61t-4.5 -44l88 3l-5 -90h-359l4 77q19 1 34.5 4t27 13t18 30t8.5 55l24 471zM1018 317l178 -3l22 244h-2zM1381 197l-1 -13q-2 -32 -4.5 -61t-4.5 -44l88 3l-5 -90h-363l4 77 q19 1 35 4t27.5 13t18.5 30t9 55l1 27l-310 2l6 119l-1 1l463 522h71l-28 -531l121 -2l-6 -113z"/>
<glyph glyph-name="onehalf" horiz-adv-x="1672" unicode="½" d="M1353 1361l-983 -1394l-124 96l977 1404zM136 1191l-36 80l304 196h71l-35 -658q-2 -32 -4.5 -61t-4.5 -44l88 3l-5 -90h-359l4 77q19 1 34.5 4t27 13t18 30t8.5 55l24 471zM1179 694q14 -13 19 -33t5 -33t-5.5 -30.5t-18.5 -33t-33 -26.5t-49 -11q-46 0 -69.5 29.5 t-23.5 72.5q0 31 19.5 68t57 68.5t92.5 53t127 21.5q50 0 98 -11t85.5 -34.5t60 -61.5t22.5 -92q0 -44 -13 -80t-36.5 -66t-54.5 -57.5t-66.5 -55t-74.5 -58t-77 -66.5q-29 -27 -47.5 -49t-33.5 -49l248 -5q13 0 24.5 2.5t20 10.5t13.5 23t6 40h97l-24 -240h-571 q4 71 24 125t50.5 97.5t69.5 80.5t81 73q45 39 73.5 75.5t44.5 69t21.5 59.5t5.5 47q0 55 -27 80.5t-69 25.5q-20 0 -42 -8.5t-30 -21.5z"/>
<glyph glyph-name="threequarters" horiz-adv-x="1761" unicode="¾" d="M84 797q1 22 9.5 43t22.5 37t33.5 26t42.5 11q28 1 46.5 -8t29.5 -24t15 -33.5t3 -36.5q0 -6 -2 -15t-6 -19.5t-10 -20.5t-15 -17q7 -10 18.5 -17t24.5 -11t25 -6t20 -2q31 0 57 11t45 30t30 45t13 56v8q-1 59 -41 98q-44 41 -124 42q-16 0 -36.5 -1t-32.5 -2l6 110 l36 -2t35 -1q39 0 66.5 13.5t45.5 34t26.5 45.5t9.5 49v7q0 51 -27 81q-29 32 -81 32q-27 0 -46 -9t-27 -16q16 -14 21 -35t4 -32q-1 -14 -7 -31t-18.5 -32t-32 -25t-47.5 -9q-47 3 -72 31q-23 26 -23 66v7q1 29 19.5 63t54 62.5t88.5 47.5t125 19q59 0 109 -13t86 -40 q35 -28 54 -68q16 -35 16 -80v-14q-2 -30 -15 -58.5t-35 -53t-50.5 -43t-61.5 -26.5l-1 -2q96 -19 139.5 -72.5t43.5 -129.5q0 -57 -22.5 -106t-66.5 -85t-109 -57t-150 -21q-63 0 -112.5 17t-83 44.5t-50.5 63.5q-15 32 -15 66v8zM1494 1361l-983 -1394l-124 96l977 1404z M1189 317l178 -3l22 244h-2zM1552 197l-1 -13q-2 -32 -4.5 -61t-4.5 -44l88 3l-5 -90h-363l4 77q19 1 35 4t27.5 13t18.5 30t9 55l1 27l-310 2l6 119l-1 1l463 522h71l-28 -531l121 -2l-6 -113z"/>
<glyph glyph-name="questiondown" horiz-adv-x="979" unicode="¿" d="M312.04 -75.9326v-21.999q0 -34.998 4 -66.9961q5.99902 -40.9971 25.998 -70.9951t53.4971 -46.9971t85.4951 -16.999q24.998 0 49.4971 5.99902q24.498 6 45.4971 15.499q20.998 9.5 37.4971 20.999t26.499 23.499q-10 10.999 -16.499 25.498q-6.5 14.499 -10.5 29.998 q-3.99902 15.499 -5.49902 30.498t-0.5 24.999q2 20.998 12.499 44.4971t28.498 42.4971q19.999 19.999 45.9971 31.998q22.999 11 51.9971 11h9.99902q63.9961 -3 93.9951 -43.998q27.998 -36.9971 26.998 -90.9941v-10.999q-3 -54.9971 -37.998 -108.993 q-34.998 -53.9971 -94.4941 -97.4941q-59.4961 -43.498 -138.991 -70.4961t-171.489 -26.998q-121.993 0 -203.488 27.998t-130.492 73.9951q-48.9971 46.9971 -67.9951 104.994q-15.999 50.9971 -15.999 101.993v16.999q3.99902 71.9961 38.4971 132.992t84.4951 113.493 t107.993 96.9941q57.9971 44.4971 106.993 83.4951q48.9971 38.9971 82.4951 73.4951t35.498 67.4961q1 16.999 -6.99902 30.498q-8 13.499 -24.999 21.499q-16.999 8.99902 -43.9971 8.99902h-3q-25.998 0 -61.9961 -8.99902l-26.998 104.993q26.998 13.999 54.9961 22.499 q27.998 8.49902 54.9971 13.499q26.998 4.99902 51.4971 6.99902q24.498 2 43.4971 2q32.998 0 64.4961 -7.49902q31.498 -7.5 55.4961 -24.499q23.999 -16.999 37.998 -43.9971q11.999 -23.999 11.999 -55.9971v-9.99902q-1 -24.998 -8.99902 -47.9971 q-8 -22.999 -27.499 -50.9971q-19.498 -27.998 -53.9961 -64.4961q-34.498 -36.4971 -89.4951 -87.4941q-37.9971 -35.998 -70.4951 -70.9961t-57.4971 -74.4951q-24.998 -39.498 -40.4971 -85.4951t-18.499 -104.993zM351.038 898.008q2 32.998 15.999 61.9961 t35.9971 50.4971q21.999 21.499 49.9971 33.998q27.999 12.499 56.9971 12.499q29.998 0 55.9961 -12.499q25.999 -12.499 44.9971 -33.998q18.999 -21.499 28.999 -50.4971q7.99902 -23.998 7.99902 -50.9971v-10.999q-1 -32.998 -14.999 -62.4961t-35.498 -51.4971 q-21.498 -21.999 -48.9971 -34.498q-27.498 -12.499 -57.4961 -12.499q-31.998 0 -58.4961 12.499q-26.499 12.499 -44.498 34.498q-17.998 21.999 -27.998 51.9971q-8.99902 26.998 -8.99902 55.9961v6z"/>
<glyph glyph-name="Agrave" d="M444 573h345l-80 257q-23 74 -40 148t-24 131h-2q-8 -35 -32 -104t-62 -166zM833 428l-449 -8l-38 -96q-6 -14 -14.5 -35t-18.5 -44.5t-20.5 -46t-19.5 -40.5l150 6l-9 -164h-438l7 141q42 0 73 19.5t54.5 51.5t42.5 74.5t39 88.5l457 1095h137l379 -1116q5 -15 12.5 -40 t14.5 -53.5t12.5 -57t7.5 -51.5l118 6l-8 -158h-547l7 135q43 0 66.5 13.5t32 38t4.5 57.5t-16 72zM516 1748q-24 15 -43 36q-18 20 -28 44q-7 19 -8 39q0 7 1 13q3 26 24 52q20 25 46 34q18 6 36 6q8 0 17 -1q27 -4 53 -18.5t46 -36.5l223 -239l-79 -101z" unicode="À"/>
<glyph glyph-name="Aacute" d="M444 573h345l-80 257q-23 74 -40 148t-24 131h-2q-8 -35 -32 -104t-62 -166zM833 428l-449 -8l-38 -96q-6 -14 -14.5 -35t-18.5 -44.5t-20.5 -46t-19.5 -40.5l150 6l-9 -164h-438l7 141q42 0 73 19.5t54.5 51.5t42.5 74.5t39 88.5l457 1095h137l379 -1116q5 -15 12.5 -40 t14.5 -53.5t12.5 -57t7.5 -51.5l118 6l-8 -158h-547l7 135q43 0 66.5 13.5t32 38t4.5 57.5t-16 72zM700 1576l-69 99l249 242q22 22 50 37q27 14 55 18q8 1 16 0q19 0 37 -6q25 -9 42 -34q18 -26 18 -52.5t-11.5 -51t-32.5 -45t-46 -35.5z" unicode="Á"/>
<glyph glyph-name="Acircumflex" d="M444 573h345l-80 257q-23 74 -40 148t-24 131h-2q-8 -35 -32 -104t-62 -166zM833 428l-449 -8l-38 -96q-6 -14 -14.5 -35t-18.5 -44.5t-20.5 -46t-19.5 -40.5l150 6l-9 -164h-438l7 141q42 0 73 19.5t54.5 51.5t42.5 74.5t39 88.5l457 1095h137l379 -1116q5 -15 12.5 -40 t14.5 -53.5t12.5 -57t7.5 -51.5l118 6l-8 -158h-547l7 135q43 0 66.5 13.5t32 38t4.5 57.5t-16 72zM732 1988h40l384 -307l-57 -85l-367 179l-394 -176l-40 82z" unicode="Â"/>
<glyph glyph-name="Atilde" d="M444 573h345l-80 257q-23 74 -40 148t-24 131h-2q-8 -35 -32 -104t-62 -166zM833 428l-449 -8l-38 -96q-6 -14 -14.5 -35t-18.5 -44.5t-20.5 -46t-19.5 -40.5l150 6l-9 -164h-438l7 141q42 0 73 19.5t54.5 51.5t42.5 74.5t39 88.5l457 1095h137l379 -1116q5 -15 12.5 -40 t14.5 -53.5t12.5 -57t7.5 -51.5l118 6l-8 -158h-547l7 135q43 0 66.5 13.5t32 38t4.5 57.5t-16 72zM585 1736q-20 0 -43 -4t-47.5 -15t-48 -30.5t-44.5 -49.5l-104 65q23 57 55.5 98t70 67t77 38.5t76.5 12.5q51 0 89.5 -16t72 -34.5t66.5 -34.5t72 -16q21 0 45.5 8.5 t48.5 25t46 40t37 52.5l106 -54q-27 -80 -61.5 -129.5t-70.5 -77t-72.5 -37.5t-68.5 -10q-48 0 -85 16t-71 34.5t-69 34.5t-77 16z" unicode="Ã"/>
<glyph glyph-name="Adieresis" d="M444 573h345l-80 257q-23 74 -40 148t-24 131h-2q-8 -35 -32 -104t-62 -166zM833 428l-449 -8l-38 -96q-6 -14 -14.5 -35t-18.5 -44.5t-20.5 -46t-19.5 -40.5l150 6l-9 -164h-438l7 141q42 0 73 19.5t54.5 51.5t42.5 74.5t39 88.5l457 1095h137l379 -1116q5 -15 12.5 -40 t14.5 -53.5t12.5 -57t7.5 -51.5l118 6l-8 -158h-547l7 135q43 0 66.5 13.5t32 38t4.5 57.5t-16 72zM894 1632q-27 0 -49.5 11t-39 30.5t-25.5 46t-9 57.5q0 34 11.5 64t31 52.5t45.5 36t54 13.5q27 0 49.5 -11.5t38.5 -31t24.5 -46t8.5 -56.5q0 -33 -11 -63.5t-30 -53 t-44.5 -36t-54.5 -13.5zM537 1632q-27 0 -49.5 11t-39 30.5t-25.5 46t-9 57.5q0 34 11.5 64t31 52.5t45.5 36t54 13.5q27 0 49.5 -11.5t38.5 -31t24.5 -46t8.5 -56.5q0 -33 -11 -63t-30 -53t-44.5 -36.5t-54.5 -13.5z" unicode="Ä"/>
<glyph glyph-name="Aring" d="M444 573h345l-80 257q-23 74 -40 148t-24 131h-2q-8 -35 -32 -104t-62 -166zM833 428l-449 -8l-38 -96q-6 -14 -14.5 -35t-18.5 -44.5t-20.5 -46t-19.5 -40.5l150 6l-9 -164h-438l7 141q42 0 73 19.5t54.5 51.5t42.5 74.5t39 88.5l457 1095h137l379 -1116q5 -15 12.5 -40 t14.5 -53.5t12.5 -57t7.5 -51.5l118 6l-8 -158h-547l7 135q43 0 66.5 13.5t32 38t4.5 57.5t-16 72zM728 2116q48 0 97 -16t88.5 -48t64.5 -81t25 -116q0 -62 -24.5 -110.5t-63.5 -82.5t-87.5 -51.5t-96.5 -17.5q-50 0 -99 15t-88 46.5t-63 80.5t-24 116q0 59 24 107.5 t62.5 83.5t87 54.5t97.5 19.5zM728 2012q-26 0 -44 -13.5t-29 -34.5t-16 -46.5t-5 -49.5q0 -80 28 -125t75 -45q35 0 61.5 33t26.5 99q0 88 -25.5 135t-71.5 47z" unicode="Å"/>
<glyph glyph-name="AE" horiz-adv-x="1906" unicode="Æ" d="M576 565h301l35 461h-2q-20 -32 -34.5 -54t-30.5 -45t-37 -51.5t-54 -72.5zM1174 672l-17 -336q-2 -28 -4 -54.5t-4 -50.5t-4.5 -43.5t-5.5 -32.5l275 1q45 0 90.5 15t83 49.5t62 91t29.5 139.5h135l-36 -451h-1076l7 135q34 2 61.5 7t47.5 22t31.5 52t14.5 97l5 111 q-95 -2 -199 -5t-201 -5l-78 -105q-35 -48 -69 -89.5t-69 -66.5v-2l164 7l-8 -158h-458l7 135q36 0 70 20t66 51t61.5 69.5t57.5 74.5l710 930v2l-154 -6l8 158h1020l-9 -397h-135q1 14 1 26q0 65 -19 113t-53.5 77t-76 38.5t-79.5 9.5h-8l-74 -2q-32 -1 -58 -6.5 t-44.5 -23.5t-29.5 -53t-14 -95l-16 -307h241v177h158l-26 -498h-135q1 11 1 22q0 49 -13 82.5t-39 51.5t-58.5 21t-64.5 3h-18z"/>
<glyph glyph-name="Ccedilla" horiz-adv-x="1419" unicode="Ç" d="M815 -106q32 -1 59.5 -11t47.5 -28.5t30 -44.5t10 -56v-11q-3 -48 -29 -87.5t-66.5 -72t-92 -57t-105 -42.5t-104 -30t-90.5 -17l-10 112q16 3 41.5 9.5t53.5 16.5t56.5 23t51.5 29t38 34.5t16 39.5q1 28 -14.5 39.5t-38.5 11.5t-47.5 -9.5t-40.5 -21.5l-83 32l67 235 q-119 28 -212 93.5t-156 158.5t-91 199t-28 210q0 23 1 47q5 93 30 186.5t69.5 179t108 159.5t146 129t183.5 86t220 31q40 0 84.5 -6.5t89.5 -19.5t89 -31.5t84 -43.5h2l-3 87h158l-25 -479h-134q-19 173 -100.5 263t-225.5 91q-107 0 -189.5 -50.5t-140 -133.5t-89 -189 t-37.5 -217q-2 -31 -2 -61q0 -98 20.5 -197.5t72 -181.5t130 -128.5t182.5 -47.5q61 0 126 14t129.5 45t125 79t112.5 116l81 -81q-80 -104 -165.5 -168t-168 -99.5t-159.5 -48t-140 -12.5h-13.5t-12.5 1l-46 -106h2q13 7 31.5 13t38.5 10.5t39 6.5t33 2z"/>
<glyph glyph-name="Egrave" horiz-adv-x="1276" unicode="È" d="M544 672l-17 -336q-2 -28 -4 -54.5t-4 -50.5t-4.5 -43.5t-5.5 -32.5l275 1q45 0 90.5 15t83 49.5t62 91t29.5 139.5h135l-36 -451h-1076l7 135q34 2 61.5 7t47.5 22t31.5 52t14.5 97l41 785q1 28 3.5 55t4.5 51.5t4.5 44.5t5.5 33l-154 -6l8 158h1020l-9 -397h-135 q1 14 1 26q0 65 -18 109q-20 52 -54 81t-78 39q-40 9 -78 9h-8l-74 -2q-32 -1 -58 -6.5t-44.5 -23.5t-29.5 -53t-14 -95l-16 -307h241v177h158l-26 -498h-135q1 11 1 22q0 49 -12 79q-14 37 -40 55q-27 17 -63 21q-28 3 -60 3h-18zM575 1748q-24 15 -43 36q-18 20 -28 44 q-7 19 -8 39q0 7 1 13q3 26 24 52q20 25 46 34q18 6 36 6q8 0 17 -1q27 -4 53 -18.5t46 -36.5l223 -239l-79 -101z"/>
<glyph glyph-name="Eacute" horiz-adv-x="1276" unicode="É" d="M544 672l-17 -336q-2 -28 -4 -54.5t-4 -50.5t-4.5 -43.5t-5.5 -32.5l275 1q45 0 90.5 15t83 49.5t62 91t29.5 139.5h135l-36 -451h-1076l7 135q34 2 61.5 7t47.5 22t31.5 52t14.5 97l41 785q1 28 3.5 55t4.5 51.5t4.5 44.5t5.5 33l-154 -6l8 158h1020l-9 -397h-135 q1 14 1 26q0 65 -18 109q-20 52 -54 81t-78 39q-40 9 -78 9h-8l-74 -2q-32 -1 -58 -6.5t-44.5 -23.5t-29.5 -53t-14 -95l-16 -307h241v177h158l-26 -498h-135q1 11 1 22q0 49 -12 79q-14 37 -40 55q-27 17 -63 21q-28 3 -60 3h-18zM647 1576l-69 99l249 242q22 22 50 37 q27 14 55 18q8 1 16 0q19 0 37 -6q25 -9 42 -34q18 -26 18 -52.5t-11.5 -51t-32.5 -45t-46 -35.5z"/>
<glyph glyph-name="Ecircumflex" horiz-adv-x="1276" unicode="Ê" d="M544 672l-17 -336q-2 -28 -4 -54.5t-4 -50.5t-4.5 -43.5t-5.5 -32.5l275 1q45 0 90.5 15t83 49.5t62 91t29.5 139.5h135l-36 -451h-1076l7 135q34 2 61.5 7t47.5 22t31.5 52t14.5 97l41 785q1 28 3.5 55t4.5 51.5t4.5 44.5t5.5 33l-154 -6l8 158h1020l-9 -397h-135 q1 14 1 26q0 65 -18 109q-20 52 -54 81t-78 39q-40 9 -78 9h-8l-74 -2q-32 -1 -58 -6.5t-44.5 -23.5t-29.5 -53t-14 -95l-16 -307h241v177h158l-26 -498h-135q1 11 1 22q0 49 -12 79q-14 37 -40 55q-27 17 -63 21q-28 3 -60 3h-18zM740 1988h40l384 -307l-57 -85l-367 179 l-394 -176l-40 82z"/>
<glyph glyph-name="Edieresis" horiz-adv-x="1276" unicode="Ë" d="M544 672l-17 -336q-2 -28 -4 -54.5t-4 -50.5t-4.5 -43.5t-5.5 -32.5l275 1q45 0 90.5 15t83 49.5t62 91t29.5 139.5h135l-36 -451h-1076l7 135q34 2 61.5 7t47.5 22t31.5 52t14.5 97l41 785q1 28 3.5 55t4.5 51.5t4.5 44.5t5.5 33l-154 -6l8 158h1020l-9 -397h-135 q1 14 1 26q0 65 -18 109q-20 52 -54 81t-78 39q-40 9 -78 9h-8l-74 -2q-32 -1 -58 -6.5t-44.5 -23.5t-29.5 -53t-14 -95l-16 -307h241v177h158l-26 -498h-135q1 11 1 22q0 49 -12 79q-14 37 -40 55q-27 17 -63 21q-28 3 -60 3h-18zM917 1632q-27 0 -49.5 11t-39 30.5 t-25.5 46t-9 57.5q0 34 11.5 64t31 52.5t45.5 36t54 13.5q27 0 49.5 -11.5t38.5 -31t24.5 -46t8.5 -56.5q0 -33 -11 -63.5t-30 -53t-44.5 -36t-54.5 -13.5zM560 1632q-27 0 -49.5 11t-39 30.5t-25.5 46t-9 57.5q0 34 11.5 64t31 52.5t45.5 36t54 13.5q27 0 49.5 -11.5 t38.5 -31t24.5 -46t8.5 -56.5q0 -33 -11 -63t-30 -53t-44.5 -36.5t-54.5 -13.5z"/>
<glyph glyph-name="Igrave" horiz-adv-x="787" unicode="Ì" d="M527 336q-2 -28 -4 -55t-4 -51.5t-4.5 -44.5t-5.5 -33l154 6l-8 -158h-583l7 135q34 2 61.5 7t47.5 22t31.5 52t14.5 97l41 785q1 28 3.5 55t4.5 51.5t4.5 44.5t5.5 33l-154 -6l8 158h583l-7 -135q-35 -2 -62 -7t-47 -22t-31.5 -52t-14.5 -97zM166 1748q-24 15 -43 36 q-18 20 -28 44q-7 19 -8 39q0 7 1 13q3 26 24 52q20 25 46 34q18 6 36 6q8 0 17 -1q27 -4 53 -18.5t46 -36.5l223 -239l-79 -101z"/>
<glyph glyph-name="Iacute" horiz-adv-x="788" unicode="Í" d="M527 336q-2 -28 -4 -55t-4 -51.5t-4.5 -44.5t-5.5 -33l154 6l-8 -158h-583l7 135q34 2 61.5 7t47.5 22t31.5 52t14.5 97l41 785q1 28 3.5 55t4.5 51.5t4.5 44.5t5.5 33l-154 -6l8 158h583l-7 -135q-35 -2 -62 -7t-47 -22t-31.5 -52t-14.5 -97zM381 1576l-69 99l249 242 q22 22 50 37q27 14 55 18q8 1 16 0q19 0 37 -6q25 -9 42 -34q18 -26 18 -52.5t-11.5 -51t-32.5 -45t-46 -35.5z"/>
<glyph glyph-name="Icircumflex" horiz-adv-x="788" unicode="Î" d="M527 336q-2 -28 -4 -55t-4 -51.5t-4.5 -44.5t-5.5 -33l154 6l-8 -158h-583l7 135q34 2 61.5 7t47.5 22t31.5 52t14.5 97l41 785q1 28 3.5 55t4.5 51.5t4.5 44.5t5.5 33q-17 -1 -39 -2l-44 -2t-41 -1.5t-30 -0.5l8 158h583l-7 -135q-35 -2 -62 -7t-47 -22t-31.5 -52 t-14.5 -97zM454 1988h40l374 -307l-57 -85l-357 179l-384 -176l-40 82z"/>
<glyph glyph-name="Idieresis" horiz-adv-x="788" unicode="Ï" d="M527 336q-2 -28 -4 -55t-4 -51.5t-4.5 -44.5t-5.5 -33l154 6l-8 -158h-583l7 135q34 2 61.5 7t47.5 22t31.5 52t14.5 97l41 785q1 28 3.5 55t4.5 51.5t4.5 44.5t5.5 33l-154 -6l8 158h583l-7 -135q-35 -2 -62 -7t-47 -22t-31.5 -52t-14.5 -97zM635 1632q-27 0 -49.5 11 t-39 30.5t-25.5 46t-9 57.5q0 34 11.5 64t31 52.5t45.5 36t54 13.5q27 0 49.5 -11.5t38.5 -31t24.5 -46t8.5 -56.5q0 -33 -11 -63.5t-30 -53t-44.5 -36t-54.5 -13.5zM278 1632q-27 0 -49.5 11t-39 30.5t-25.5 46t-9 57.5q0 34 11.5 64t31 52.5t45.5 36t54 13.5 q27 0 49.5 -11.5t38.5 -31t24.5 -46t8.5 -56.5q0 -33 -11 -63t-30 -53t-44.5 -36.5t-54.5 -13.5z"/>
<glyph glyph-name="Eth" horiz-adv-x="1546" unicode="Ð" d="M728 1299h-12q-30 0 -56.5 -4.5t-46.5 -22.5t-31 -53t-14 -94l-17 -306h208l-10 -187l-208 -4l-15 -292q-1 -28 -3 -55t-4 -51.5t-4.5 -44.5t-5.5 -33q15 1 40.5 1t54 -1t56 -1.5t45.5 -0.5q112 0 195 45.5t139 121t86 172.5t35 199q2 36 2 70q0 113 -23.5 214t-80 175.5 t-140.5 111.5t-190 40zM147 1434l592 2q135 0 243.5 -28t192.5 -78t144 -118t97 -146.5t51 -155t14 -144.5q0 -17 -1 -35q-4 -83 -27 -169.5t-67 -168t-110.5 -153t-156.5 -125t-206 -84.5t-259 -31h-582l7 135q34 2 61.5 7t47.5 22t31.5 52t14.5 97l16 309l-202 -4l10 201 h202l15 279q1 28 3.5 55t4.5 51.5t4.5 44.5t5.5 33q-17 -1 -39 -2l-44 -2t-41 -1.5t-30 -0.5z"/>
<glyph glyph-name="Ntilde" horiz-adv-x="1581" unicode="Ñ" d="M1334 -20h-174l-611 842q-24 34 -51 72.5t-53 80.5h-2l-30 -639q-2 -28 -4 -55t-4 -51.5t-4.5 -44.5t-5.5 -33l155 6l-9 -158h-467l8 135q34 2 61.5 7t47 22t31.5 52t15 97l36 785q1 28 3.5 55t4.5 51.5t4.5 44.5t5.5 33l-155 -6l9 158h321q633 -860 663.5 -907.5 t53.5 -82.5h2l34 654q1 28 3.5 55t4.5 51.5t4.5 44.5t5.5 33l-155 -6l9 158h466l-7 -135q-35 -2 -62.5 -7t-47 -22t-31.5 -52t-15 -97zM709 1736q-20 0 -43 -4t-47.5 -15t-48 -30.5t-44.5 -49.5l-104 65q23 57 55.5 98t70 67t77 38.5t76.5 12.5q51 0 89.5 -16t72 -34.5 t66.5 -34.5t72 -16q21 0 45.5 8.5t48.5 25t46 40t37 52.5l106 -54q-27 -80 -61.5 -129.5t-70.5 -77t-72.5 -37.5t-68.5 -10q-48 0 -85 16t-71 34.5t-69 34.5t-77 16z"/>
<glyph glyph-name="Ograve" horiz-adv-x="1560" unicode="Ò" d="M81 717q4 86 27.5 175t67 172t105.5 156.5t144.5 128.5t184 86.5t222.5 31.5q124 0 223 -32t174 -87t127.5 -128.5t85 -156.5t44.5 -172q9 -67 10 -133q0 -21 -1 -41q-4 -85 -28 -173.5t-66.5 -171.5t-104.5 -157t-144 -129t-183 -87t-222 -32q-130 0 -231 31 t-176.5 84.5t-127 126t-82.5 155.5q-30 84 -42 174q-8 63 -9 125q0 27 2 54zM397 741q-2 -27 -2 -55q-1 -39 3 -81q6 -72 22 -142.5t45 -135t72 -114t102 -78.5q57 -28 132 -28h5q71 0 127.5 25.5t100 68.5t75.5 100t53.5 121t33 130.5t14.5 129.5q2 38 2 74q0 99 -14 186 q-19 119 -65.5 205.5t-122.5 134.5q-72 45 -171 45h-12q-70 -2 -126 -28.5t-99.5 -70.5t-75 -102t-52.5 -122.5t-32.5 -132t-14.5 -130.5zM668 1748q-24 15 -43 36q-18 20 -28 44q-7 19 -8 39q0 7 1 13q3 26 24 52q20 25 46 34q18 6 36 6q8 0 17 -1q27 -4 53 -18.5t46 -36.5 l223 -239l-79 -101z"/>
<glyph glyph-name="Oacute" horiz-adv-x="1560" unicode="Ó" d="M81 717q4 86 27.5 175t67 172t105.5 156.5t144.5 128.5t184 86.5t222.5 31.5q124 0 223 -32t174 -87t127.5 -128.5t85 -156.5t44.5 -172q9 -67 10 -133q0 -21 -1 -41q-4 -85 -28 -173.5t-66.5 -171.5t-104.5 -157t-144 -129t-183 -87t-222 -32q-130 0 -231 31 t-176.5 84.5t-127 126t-82.5 155.5q-30 84 -42 174q-8 63 -9 125q0 27 2 54zM397 741q-2 -27 -2 -55q-1 -39 3 -81q6 -72 22 -142.5t45 -135t72 -114t102 -78.5q57 -28 132 -28h5q71 0 127.5 25.5t100 68.5t75.5 100t53.5 121t33 130.5t14.5 129.5q2 38 2 74q0 99 -14 186 q-19 119 -65.5 205.5t-122.5 134.5q-72 45 -171 45h-12q-70 -2 -126 -28.5t-99.5 -70.5t-75 -102t-52.5 -122.5t-32.5 -132t-14.5 -130.5zM760 1576l-69 99l249 242q22 22 50 37q27 14 55 18q8 1 16 0q19 0 37 -6q25 -9 42 -34q18 -26 18 -52.5t-11.5 -51t-32.5 -45 t-46 -35.5z"/>
<glyph glyph-name="Ocircumflex" horiz-adv-x="1560" unicode="Ô" d="M81 717q4 86 27.5 175t67 172t105.5 156.5t144.5 128.5t184 86.5t222.5 31.5q124 0 223 -32t174 -87t127.5 -128.5t85 -156.5t44.5 -172q9 -67 10 -133q0 -21 -1 -41q-4 -85 -28 -173.5t-66.5 -171.5t-104.5 -157t-144 -129t-183 -87t-222 -32q-130 0 -231 31 t-176.5 84.5t-127 126t-82.5 155.5q-30 84 -42 174q-8 63 -9 125q0 27 2 54zM397 741q-2 -27 -2 -55q-1 -39 3 -81q6 -72 22 -142.5t45 -135t72 -114t102 -78.5q57 -28 132 -28h5q71 0 127.5 25.5t100 68.5t75.5 100t53.5 121t33 130.5t14.5 129.5q2 38 2 74q0 99 -14 186 q-19 119 -65.5 205.5t-122.5 134.5q-72 45 -171 45h-12q-70 -2 -126 -28.5t-99.5 -70.5t-75 -102t-52.5 -122.5t-32.5 -132t-14.5 -130.5zM894 1988h40l384 -307l-57 -85l-367 179l-394 -176l-40 82z"/>
<glyph glyph-name="Otilde" horiz-adv-x="1560" unicode="Õ" d="M81 717q4 86 27.5 175t67 172t105.5 156.5t144.5 128.5t184 86.5t222.5 31.5q124 0 223 -32t174 -87t127.5 -128.5t85 -156.5t44.5 -172q9 -67 10 -133q0 -21 -1 -41q-4 -85 -28 -173.5t-66.5 -171.5t-104.5 -157t-144 -129t-183 -87t-222 -32q-130 0 -231 31 t-176.5 84.5t-127 126t-82.5 155.5q-30 84 -42 174q-8 63 -9 125q0 27 2 54zM397 741q-2 -27 -2 -55q-1 -39 3 -81q6 -72 22 -142.5t45 -135t72 -114t102 -78.5q57 -28 132 -28h5q71 0 127.5 25.5t100 68.5t75.5 100t53.5 121t33 130.5t14.5 129.5q2 38 2 74q0 99 -14 186 q-19 119 -65.5 205.5t-122.5 134.5q-72 45 -171 45h-12q-70 -2 -126 -28.5t-99.5 -70.5t-75 -102t-52.5 -122.5t-32.5 -132t-14.5 -130.5zM745 1736q-20 0 -43 -4t-47.5 -15t-48 -30.5t-44.5 -49.5l-104 65q23 57 55.5 98t70 67t77 38.5t76.5 12.5q51 0 89.5 -16t72 -34.5 t66.5 -34.5t72 -16q21 0 45.5 8.5t48.5 25t46 40t37 52.5l106 -54q-27 -80 -61.5 -129.5t-70.5 -77t-72.5 -37.5t-68.5 -10q-48 0 -85 16t-71 34.5t-69 34.5t-77 16z"/>
<glyph glyph-name="Odieresis" horiz-adv-x="1560" unicode="Ö" d="M81 717q4 86 27.5 175t67 172t105.5 156.5t144.5 128.5t184 86.5t222.5 31.5q124 0 223 -32t174 -87t127.5 -128.5t85 -156.5t44.5 -172q9 -67 10 -133q0 -21 -1 -41q-4 -85 -28 -173.5t-66.5 -171.5t-104.5 -157t-144 -129t-183 -87t-222 -32q-130 0 -231 31 t-176.5 84.5t-127 126t-82.5 155.5q-30 84 -42 174q-8 63 -9 125q0 27 2 54zM397 741q-2 -27 -2 -55q-1 -39 3 -81q6 -72 22 -142.5t45 -135t72 -114t102 -78.5q57 -28 132 -28h5q71 0 127.5 25.5t100 68.5t75.5 100t53.5 121t33 130.5t14.5 129.5q2 38 2 74q0 99 -14 186 q-19 119 -65.5 205.5t-122.5 134.5q-72 45 -171 45h-12q-70 -2 -126 -28.5t-99.5 -70.5t-75 -102t-52.5 -122.5t-32.5 -132t-14.5 -130.5zM1067 1632q-27 0 -49.5 11t-39 30.5t-25.5 46t-9 57.5q0 34 11.5 64t31 52.5t45.5 36t54 13.5q27 0 49.5 -11.5t38.5 -31t24.5 -46 t8.5 -56.5q0 -33 -11 -63.5t-30 -53t-44.5 -36t-54.5 -13.5zM710 1632q-27 0 -49.5 11t-39 30.5t-25.5 46t-9 57.5q0 34 11.5 64t31 52.5t45.5 36t54 13.5q27 0 49.5 -11.5t38.5 -31t24.5 -46t8.5 -56.5q0 -33 -11 -63t-30 -53t-44.5 -36.5t-54.5 -13.5z"/>
<glyph glyph-name="multiply" horiz-adv-x="1103" unicode="×" d="M57 298l346 325l-309 323l162 151l307 -327l354 341l130 -147l-346 -336l313 -344l-160 -148l-316 345l-346 -332z"/>
<glyph glyph-name="Oslash" horiz-adv-x="1559" unicode="Ø" d="M1180 682q2 36 2 71q0 70 -8.5 149.5t-34.5 158.5l-566 -884q40 -33 88.5 -51.5t108.5 -18.5h6q71 0 127.5 25.5t100 68.5t75.5 100t53.5 121t33 130.5t14.5 129.5zM397 741q-2 -28 -2 -58q0 -20 1.5 -56t9 -88t21 -103.5t34.5 -98.5l573 903q-45 44 -101.5 65.5 t-123.5 21.5h-12q-70 -2 -126 -28.5t-99.5 -70.5t-75 -102t-52.5 -122.5t-32.5 -132t-14.5 -130.5zM81 717q4 86 27.5 175t67 172t105.5 156.5t144.5 128.5t184 86.5t222.5 31.5q90 0 165.5 -17t139.5 -47l128 201l157 -101l-132 -207q58 -56 99 -125t65.5 -145t33 -143.5 t8.5 -121.5q0 -22 -1 -44q-4 -85 -28 -173.5t-66.5 -171.5t-104.5 -157t-144 -129t-183 -87t-222 -32q-81 0 -150 12t-128 35l-143 -223l-147 102l133 210q-68 55 -114 125.5t-73.5 151t-36.5 152.5t-9 130q0 28 2 55z"/>
<glyph glyph-name="Ugrave" horiz-adv-x="1547" unicode="Ù" d="M1359 608q-9 -177 -59 -299t-131 -198t-187.5 -110t-229.5 -34q-115 0 -202.5 22.5t-150.5 64t-103.5 99.5t-63.5 129q-22 70 -30 151q-4 49 -5 100q0 34 2 69l26 496q1 28 3.5 55t4.5 51.5t4.5 44.5t5.5 33l-154 -6l8 158h584l-7 -135q-35 -2 -62 -7t-47 -22t-31.5 -52 t-14.5 -97l-30 -563q-2 -30 -2 -57q1 -91 19 -155q24 -83 66.5 -132t100 -69t119.5 -22h18q74 1 134 23q68 26 117 80t78 138t35 197l28 537q1 28 3.5 55t4.5 51.5t4.5 44.5t5.5 33l-154 -6l8 158h474l-7 -135q-35 -2 -62 -7t-47 -22t-31.5 -52t-14.5 -97zM579 1748 q-24 15 -43 36q-18 20 -28 44q-7 19 -8 39q0 7 1 13q3 26 24 52q20 25 46 34q18 6 36 6q8 0 17 -1q27 -4 53 -18.5t46 -36.5l223 -239l-79 -101z"/>
<glyph glyph-name="Uacute" horiz-adv-x="1547" unicode="Ú" d="M1359 608q-9 -177 -59 -299t-131 -198t-187.5 -110t-229.5 -34q-115 0 -202.5 22.5t-150.5 64t-103.5 99.5t-63.5 129q-22 70 -30 151q-4 49 -5 100q0 34 2 69l26 496q1 28 3.5 55t4.5 51.5t4.5 44.5t5.5 33l-154 -6l8 158h584l-7 -135q-35 -2 -62 -7t-47 -22t-31.5 -52 t-14.5 -97l-30 -563q-2 -30 -2 -57q1 -91 19 -155q24 -83 66.5 -132t100 -69t119.5 -22h18q74 1 134 23q68 26 117 80t78 138t35 197l28 537q1 28 3.5 55t4.5 51.5t4.5 44.5t5.5 33l-154 -6l8 158h474l-7 -135q-35 -2 -62 -7t-47 -22t-31.5 -52t-14.5 -97zM796 1576l-69 99 l249 242q22 22 50 37q27 14 55 18q8 1 16 0q19 0 37 -6q25 -9 42 -34q18 -26 18 -52.5t-11.5 -51t-32.5 -45t-46 -35.5z"/>
<glyph glyph-name="Ucircumflex" horiz-adv-x="1547" unicode="Û" d="M1359 608q-9 -177 -59 -299t-131 -198t-187.5 -110t-229.5 -34q-115 0 -202.5 22.5t-150.5 64t-103.5 99.5t-63.5 129q-22 70 -30 151q-4 49 -5 100q0 34 2 69l26 496q1 28 3.5 55t4.5 51.5t4.5 44.5t5.5 33l-154 -6l8 158h584l-7 -135q-35 -2 -62 -7t-47 -22t-31.5 -52 t-14.5 -97l-30 -563q-2 -30 -2 -57q1 -91 19 -155q24 -83 66.5 -132t100 -69t119.5 -22h18q74 1 134 23q68 26 117 80t78 138t35 197l28 537q1 28 3.5 55t4.5 51.5t4.5 44.5t5.5 33l-154 -6l8 158h474l-7 -135q-35 -2 -62 -7t-47 -22t-31.5 -52t-14.5 -97zM887 1988h40 l384 -307l-57 -85l-367 179l-394 -176l-40 82z"/>
<glyph glyph-name="Udieresis" horiz-adv-x="1547" unicode="Ü" d="M1359 608q-9 -177 -59 -299t-131 -198t-187.5 -110t-229.5 -34q-115 0 -202.5 22.5t-150.5 64t-103.5 99.5t-63.5 129q-22 70 -30 151q-4 49 -5 100q0 34 2 69l26 496q1 28 3.5 55t4.5 51.5t4.5 44.5t5.5 33l-154 -6l8 158h584l-7 -135q-35 -2 -62 -7t-47 -22t-31.5 -52 t-14.5 -97l-30 -563q-2 -30 -2 -57q1 -91 19 -155q24 -83 66.5 -132t100 -69t119.5 -22h18q74 1 134 23q68 26 117 80t78 138t35 197l28 537q1 28 3.5 55t4.5 51.5t4.5 44.5t5.5 33l-154 -6l8 158h474l-7 -135q-35 -2 -62 -7t-47 -22t-31.5 -52t-14.5 -97zM1064 1632 q-27 0 -49.5 11t-39 30.5t-25.5 46t-9 57.5q0 34 11.5 64t31 52.5t45.5 36t54 13.5q27 0 49.5 -11.5t38.5 -31t24.5 -46t8.5 -56.5q0 -33 -11 -63.5t-30 -53t-44.5 -36t-54.5 -13.5zM707 1632q-27 0 -49.5 11t-39 30.5t-25.5 46t-9 57.5q0 34 11.5 64t31 52.5t45.5 36 t54 13.5q27 0 49.5 -11.5t38.5 -31t24.5 -46t8.5 -56.5q0 -33 -11 -63t-30 -53t-44.5 -36.5t-54.5 -13.5z"/>
<glyph glyph-name="Yacute" horiz-adv-x="1362" unicode="Ý" d="M857 568l-12 -232q-2 -28 -4 -55t-4 -51.5t-4.5 -44.5t-5.5 -33l164 6l-8 -158h-593l7 135q34 2 61.5 7t47.5 22t31.5 52t14.5 97l10 179l-347 595q-14 24 -26.5 51t-22 53.5t-15 50t-4.5 40.5l-99 -6l8 158h598l-7 -135q-12 1 -23 1q-31 0 -56 -6q-34 -8 -52 -29 q-19 -21 -20 -52q0 -31 22 -72l143 -257q9 -16 20.5 -38t25.5 -50.5t27 -57.5t20 -51h3q11 23 37.5 72.5t68.5 127.5q155 275 171.5 302t33 52t30.5 41v2l-157 -8l8 158h452l-7 -135q-36 -6 -66 -20t-58.5 -39.5t-57 -65t-61.5 -94.5zM741 1576l-69 99l249 242q22 22 50 37 q27 14 55 18q8 1 16 0q19 0 37 -6q25 -9 42 -34q18 -26 18 -52.5t-11.5 -51t-32.5 -45t-46 -35.5z"/>
<glyph glyph-name="Thorn" horiz-adv-x="1290" unicode="Þ" d="M683 1025h-66.5t-53.5 -1l-30 -563q18 -2 36.5 -3t38.5 -1q169 0 251.5 74t90.5 223q1 13 1 25q0 50 -11.5 91t-34 71t-52 47t-60.5 25t-60 10t-50 2zM657 311q-34 -2 -59 -2q-6 0 -24 0.5t-49 1.5q-3 -49 -7 -92.5t-9 -66.5l154 6l-8 -158h-583l7 135q34 2 61.5 7 t47.5 22t31.5 52t14.5 97l41 785q1 28 3.5 55t4.5 51.5t4.5 44.5t5.5 33l-154 -6l8 158h583l-7 -135q-31 -2 -56.5 -6t-44.5 -17t-31.5 -38t-18.5 -70l122 2h12q128 0 235 -21t183 -72.5t109.5 -126.5t33.5 -165q0 -24 -2 -50q-6 -82 -47.5 -157t-117.5 -133t-187 -94 t-256 -40z"/>
<glyph glyph-name="germandbls" horiz-adv-x="1375" unicode="ß" d="M145 -23q5 58 10.5 131.5t12 154.5t12.5 166t11.5 165.5t11 153t9.5 129.5l-163 -2l18 149h165q18 157 72 260t130.5 163.5t166.5 84.5t180 24q45 0 95.5 -4.5t101 -16t96.5 -32t81.5 -53t56.5 -78t21 -106.5q0 -64 -27 -113t-67.5 -89t-88 -73t-88 -63t-67.5 -60 t-27 -64q0 -18 2.5 -34t17.5 -35.5t48.5 -44.5t96.5 -61q51 -29 103 -61.5t95 -72t70 -89t27 -113.5q0 -69 -30.5 -127t-85.5 -100t-130 -65.5t-163 -23.5q-74 0 -138.5 16.5t-113 47.5t-76.5 75t-28 99q0 31 10 57.5t28 45.5t42 29.5t51 10.5q36 0 63.5 -16t43.5 -42.5 t17.5 -45.5t1.5 -24q0 -29 -13 -59q5 -11 18.5 -22t30.5 -19t35.5 -13t33.5 -5q45 0 74.5 11t46.5 29t24 41t7 47q0 28 -15.5 52t-42.5 46t-62.5 43t-75.5 44q-71 40 -120 75.5t-79.5 70t-44.5 68.5t-14 72q0 49 17 88.5t45 73t63.5 62.5t72 56.5t71.5 55.5t61 59t39.5 64 t13.5 68q0 7 -1 15q-4 48 -23 78t-47 47.5t-61.5 24t-65.5 6.5q-65 0 -113 -20.5t-82.5 -56t-58 -83t-38 -100.5t-22.5 -108.5t-12 -108.5l-79 -955q-14 -119 -46 -216.5t-85.5 -168t-130.5 -109t-182 -38.5q-94 0 -144.5 40t-50.5 108q0 18 7 40.5t22 42.5t39.5 33t59.5 12 q23 -1 43 -10.5t34 -26.5t20.5 -39.5t2.5 -49.5q8 -5 26 -5q35 0 57.5 38t36 96t21 125.5t12.5 127.5z"/>
<glyph glyph-name="agrave" horiz-adv-x="1125" unicode="à" d="M409 159q38 0 71 33.5t61.5 90t52 131t40.5 157t28.5 167t15.5 161.5q-11 4 -36 8t-49 4q-58 0 -106 -36.5t-82.5 -108.5t-54 -179t-19.5 -248q0 -84 21 -132t57 -48zM964 1003q-7 -51 -17 -119t-20.5 -142.5t-20.5 -151t-18 -145.5t-13 -126t-5 -92q0 -37 9.5 -48.5 t20.5 -11.5q12 0 24.5 8t26 27t27 50.5t26.5 77.5l111 -33q-9 -44 -29.5 -99.5t-55 -104.5t-84 -82.5t-116.5 -33.5q-33 0 -63 8.5t-52.5 30t-36 57.5t-13.5 90q0 27 2 60.5t6 59.5h-2q-38 -89 -79 -148t-85.5 -94t-90.5 -49.5t-93 -14.5q-56 0 -105.5 22.5t-86 69t-58 117 t-21.5 165.5q0 140 41 266t120 221.5t194 152t262 56.5q58 0 134 -11.5t161 -32.5zM462 1377q-19 19 -33 45q-13 25 -17 52l-2 16q0 20 6 38q8 26 34 48q26 20 52 24q10 2 19 2q15 0 31 -4q24 -8 45.5 -26.5t36.5 -44.5l159 -286l-99 -83z"/>
<glyph glyph-name="aacute" horiz-adv-x="1125" unicode="á" d="M409 159q38 0 71 33.5t61.5 90t52 131t40.5 157t28.5 167t15.5 161.5q-11 4 -36 8t-49 4q-58 0 -106 -36.5t-82.5 -108.5t-54 -179t-19.5 -248q0 -84 21 -132t57 -48zM964 1003q-7 -51 -17 -119t-20.5 -142.5t-20.5 -151t-18 -145.5t-13 -126t-5 -92q0 -37 9.5 -48.5 t20.5 -11.5q12 0 24.5 8t26 27t27 50.5t26.5 77.5l111 -33q-9 -44 -29.5 -99.5t-55 -104.5t-84 -82.5t-116.5 -33.5q-33 0 -63 8.5t-52.5 30t-36 57.5t-13.5 90q0 27 2 60.5t6 59.5h-2q-38 -89 -79 -148t-85.5 -94t-90.5 -49.5t-93 -14.5q-56 0 -105.5 22.5t-86 69t-58 117 t-21.5 165.5q0 140 41 266t120 221.5t194 152t262 56.5q58 0 134 -11.5t161 -32.5zM668 1158l-89 83l182 286q17 26 41 45q24 18 51 26q17 5 34 5q9 1 19 -1q26 -4 50 -26q24 -20 30 -48q4 -15 4 -30q0 -13 -2 -26q-6 -28 -22 -54t-38 -44z"/>
<glyph glyph-name="acircumflex" horiz-adv-x="1125" unicode="â" d="M409 159q38 0 71 33.5t61.5 90t52 131t40.5 157t28.5 167t15.5 161.5q-11 4 -36 8t-49 4q-58 0 -106 -36.5t-82.5 -108.5t-54 -179t-19.5 -248q0 -84 21 -132t57 -48zM964 1003q-7 -51 -17 -119t-20.5 -142.5t-20.5 -151t-18 -145.5t-13 -126t-5 -92q0 -37 9.5 -48.5 t20.5 -11.5q12 0 24.5 8t26 27t27 50.5t26.5 77.5l111 -33q-9 -44 -29.5 -99.5t-55 -104.5t-84 -82.5t-116.5 -33.5q-33 0 -63 8.5t-52.5 30t-36 57.5t-13.5 90q0 27 2 60.5t6 59.5h-2q-38 -89 -79 -148t-85.5 -94t-90.5 -49.5t-93 -14.5q-56 0 -105.5 22.5t-86 69t-58 117 t-21.5 165.5q0 140 41 266t120 221.5t194 152t262 56.5q58 0 134 -11.5t161 -32.5zM657 1603h21l310 -347l-89 -94l-256 212h-2l-279 -205l-72 97z"/>
<glyph glyph-name="atilde" horiz-adv-x="1125" unicode="ã" d="M409 159q38 0 71 33.5t61.5 90t52 131t40.5 157t28.5 167t15.5 161.5q-11 4 -36 8t-49 4q-58 0 -106 -36.5t-82.5 -108.5t-54 -179t-19.5 -248q0 -84 21 -132t57 -48zM964 1003q-7 -51 -17 -119t-20.5 -142.5t-20.5 -151t-18 -145.5t-13 -126t-5 -92q0 -37 9.5 -48.5 t20.5 -11.5q12 0 24.5 8t26 27t27 50.5t26.5 77.5l111 -33q-9 -44 -29.5 -99.5t-55 -104.5t-84 -82.5t-116.5 -33.5q-33 0 -63 8.5t-52.5 30t-36 57.5t-13.5 90q0 27 2 60.5t6 59.5h-2q-38 -89 -79 -148t-85.5 -94t-90.5 -49.5t-93 -14.5q-56 0 -105.5 22.5t-86 69t-58 117 t-21.5 165.5q0 140 41 266t120 221.5t194 152t262 56.5q58 0 134 -11.5t161 -32.5zM569 1326q-12 0 -28 -4t-33.5 -13.5t-35.5 -26t-34 -40.5l-108 68q16 46 42.5 83.5t58 64t66.5 40.5t69 14q48 0 79 -12t57 -27t51.5 -27t62.5 -12q36 0 70 28.5t60 76.5l110 -59 q-21 -64 -49.5 -108.5t-61 -72t-66 -40t-63.5 -12.5q-41 0 -73.5 12.5t-61 27t-55.5 27t-57 12.5z"/>
<glyph glyph-name="adieresis" horiz-adv-x="1125" unicode="ä" d="M409 159q38 0 71 33.5t61.5 90t52 131t40.5 157t28.5 167t15.5 161.5q-11 4 -36 8t-49 4q-58 0 -106 -36.5t-82.5 -108.5t-54 -179t-19.5 -248q0 -84 21 -132t57 -48zM964 1003q-7 -51 -17 -119t-20.5 -142.5t-20.5 -151t-18 -145.5t-13 -126t-5 -92q0 -37 9.5 -48.5 t20.5 -11.5q12 0 24.5 8t26 27t27 50.5t26.5 77.5l111 -33q-9 -44 -29.5 -99.5t-55 -104.5t-84 -82.5t-116.5 -33.5q-33 0 -63 8.5t-52.5 30t-36 57.5t-13.5 90q0 27 2 60.5t6 59.5h-2q-38 -89 -79 -148t-85.5 -94t-90.5 -49.5t-93 -14.5q-56 0 -105.5 22.5t-86 69t-58 117 t-21.5 165.5q0 140 41 266t120 221.5t194 152t262 56.5q58 0 134 -11.5t161 -32.5zM536 1228q-27 0 -50 11t-39.5 30.5t-26 46t-9.5 57.5q0 33 12 63t31.5 52.5t45.5 36t54 13.5t50.5 -11.5t38.5 -31t25 -45.5t9 -56q0 -35 -11 -65t-30 -52.5t-45 -35.5t-55 -13zM892 1228 q-27 0 -50 11t-39.5 30.5t-26 46t-9.5 57.5q0 33 12 63t31.5 52.5t45.5 36t54 13.5t50.5 -11.5t38.5 -31t25 -45.5t9 -56q0 -35 -11 -65.5t-30 -53t-45 -35t-55 -12.5z"/>
<glyph glyph-name="aring" horiz-adv-x="1125" unicode="å" d="M409 159q38 0 71 33.5t61.5 90t52 131t40.5 157t28.5 167t15.5 161.5q-11 4 -36 8t-49 4q-58 0 -106 -36.5t-82.5 -108.5t-54 -179t-19.5 -248q0 -84 21 -132t57 -48zM964 1003q-7 -51 -17 -119t-20.5 -142.5t-20.5 -151t-18 -145.5t-13 -126t-5 -92q0 -37 9.5 -48.5 t20.5 -11.5q12 0 24.5 8t26 27t27 50.5t26.5 77.5l111 -33q-9 -44 -29.5 -99.5t-55 -104.5t-84 -82.5t-116.5 -33.5q-33 0 -63 8.5t-52.5 30t-36 57.5t-13.5 90q0 27 2 60.5t6 59.5h-2q-38 -89 -79 -148t-85.5 -94t-90.5 -49.5t-93 -14.5q-56 0 -105.5 22.5t-86 69t-58 117 t-21.5 165.5q0 140 41 266t120 221.5t194 152t262 56.5q58 0 134 -11.5t161 -32.5zM703 1628q43 0 85 -13.5t75 -41.5q32 -29 52 -71q19 -40 19 -93v-6q-2 -57 -25 -103.5t-59 -79t-80.5 -50t-88.5 -17.5q-43 0 -85 15t-75 44q-33 30 -53 72q-19 40 -19 92v5q1 52 22.5 97.5 t57 78.5t81 52t93.5 19zM696 1507q-13 0 -26.5 -6.5t-24.5 -18.5t-19 -31t-9 -45v-14q0 -54 20 -84q22 -33 57 -32h2q26 1 49.5 26.5t26.5 73.5q1 10 1 19q0 53 -20 81q-23 31 -55 31h-2z"/>
<glyph glyph-name="ae" horiz-adv-x="1497" unicode="æ" d="M1165.5 859.5q-9.5 18.5 -23.5 30t-31 17t-32 5.5q-52 0 -89.5 -27.5t-62.5 -72t-39 -101t-20 -113.5q83 15 141.5 37t96 50t53.5 60.5t16 68.5q0 27 -9.5 45.5zM610 458q-57 -6 -111 -17.5t-96 -31.5t-68 -50.5t-27 -74.5q-1 -29 9.5 -50t27 -35.5t38 -21.5t43.5 -7 q24 0 52 4.5t55.5 13.5t52 22t41.5 30q-10 63 -14 105.5t-4 79.5q0 16 1 33zM1414 789q0 -56 -24 -99t-65.5 -76t-96.5 -57t-116.5 -41.5t-126 -29t-124.5 -20.5q0 -87 17 -145t44 -92.5t60.5 -49t66.5 -14.5q25 0 60.5 7t73 28.5t73.5 61t64 103.5l116 -57 q-44 -101 -96 -165t-109 -101t-117 -51t-120 -14q-53 0 -95.5 9.5t-77 28.5t-63 47t-55.5 63q-46 -44 -94 -72.5t-96 -45t-95.5 -23t-92.5 -7.5q-74 0 -129 20.5t-91 57.5t-51 82.5t-15 94.5v18q3 65 28.5 114t67 85t96.5 60.5t118.5 40t132 23t137.5 10.5l6 134q1 10 1 20 q0 29 -5.5 58.5t-21.5 54.5t-41 38t-61 13h-5q-41 -2 -76.5 -14.5t-61.5 -39.5q14 -17 17.5 -42t2.5 -40q-1 -21 -10.5 -44t-27 -42t-43 -30.5t-58.5 -11.5h-5q-61 2 -90.5 40.5t-29.5 89.5q0 5 1.5 36t34 80t88.5 85.5t132 57.5t166 21q49 0 91 -7t75.5 -24.5t58 -46.5 t37.5 -73q57 72 137 111.5t171 39.5q68 0 125 -15t98.5 -46.5t65 -80.5t23.5 -116z"/>
<glyph glyph-name="ccedilla" horiz-adv-x="956" unicode="ç" d="M584 -109q32 -1 59 -9.5t46 -26t28 -42t9 -53.5v-12q-3 -48 -28 -85.5t-65.5 -66.5t-91 -50.5t-103 -36.5t-102.5 -24.5t-90 -14.5l-10 106q16 3 41 8t53 12.5t56.5 17.5t51.5 23.5t38 30.5t16 38q1 26 -15 37.5t-39 12t-47.5 -7.5t-39.5 -20l-75 32l68 230 q-66 15 -119.5 49.5t-91 88t-58 127.5t-20.5 169q0 66 13.5 138t41 141t69.5 131.5t98 109.5t126.5 75t155.5 28q70 0 131 -17.5t105 -50t69.5 -78t25.5 -101.5q0 -62 -35 -100t-95 -40q-35 -1 -59.5 11t-39.5 30.5t-21.5 40t-6.5 39.5t4.5 41.5t15.5 43.5q-8 19 -34.5 32.5 t-62.5 13.5q-44 0 -77 -21t-57.5 -55.5t-40.5 -79.5t-25.5 -93.5t-14.5 -96.5t-6 -89q-1 -14 -1 -28q0 -66 13.5 -118.5t38 -89.5t56 -54.5t63.5 -20.5q9 -1 20 -1q20 0 50 5t67.5 27.5t75 66t69.5 115.5l117 -57q-41 -94 -88.5 -158t-100 -103.5t-109 -58.5t-115.5 -23 l-51 -120h2q13 7 31.5 13t38.5 10.5t39 6.5t33 2z"/>
<glyph glyph-name="egrave" horiz-adv-x="963" unicode="è" d="M550 912q-52 0 -88.5 -29.5t-61 -76t-38 -104.5t-19.5 -115q83 15 140.5 38.5t92.5 53.5q34 29 50 65q15 33 15 69q1 27 -9 47q-8 18 -21.5 29.5t-29.5 17t-31 5.5zM880 789q0 -56 -23.5 -100t-64 -78t-94 -59.5t-114 -44t-124.5 -31t-124 -21.5q0 -87 16.5 -143.5 t42.5 -89t59 -45t66 -12.5q25 0 59.5 7t71 28t72 60t63.5 103l116 -56q-44 -101 -95.5 -165t-107.5 -100.5t-115 -50.5t-119 -14h-7q-90 0 -162 26q-76 27 -129.5 82.5t-82 140t-28.5 198.5q0 66 13 138t40.5 141t69.5 131.5t99.5 109.5t131 75t163.5 28q68 0 124.5 -15 t97 -46.5t63 -80.5t22.5 -116zM378 1377q-19 19 -33 45q-13 25 -17 52l-2 16q0 20 6 38q8 26 34 48q26 20 52 24q10 2 19 2q15 0 31 -4q24 -8 45.5 -26.5t36.5 -44.5l159 -286l-99 -83z"/>
<glyph glyph-name="eacute" horiz-adv-x="963" unicode="é" d="M550 912q-52 0 -88.5 -29.5t-61 -76t-38 -104.5t-19.5 -115q83 15 140.5 38.5t92.5 53.5q34 29 50 65q15 33 15 69q1 27 -9 47q-8 18 -21.5 29.5t-29.5 17t-31 5.5zM880 789q0 -56 -23.5 -100t-64 -78t-94 -59.5t-114 -44t-124.5 -31t-124 -21.5q0 -87 16.5 -143.5 t42.5 -89t59 -45t66 -12.5q25 0 59.5 7t71 28t72 60t63.5 103l116 -56q-44 -101 -95.5 -165t-107.5 -100.5t-115 -50.5t-119 -14h-7q-90 0 -162 26q-76 27 -129.5 82.5t-82 140t-28.5 198.5q0 66 13 138t40.5 141t69.5 131.5t99.5 109.5t131 75t163.5 28q68 0 124.5 -15 t97 -46.5t63 -80.5t22.5 -116zM557 1158l-89 83l182 286q17 26 41 45q24 18 51 26q17 5 34 5q9 1 19 -1q26 -4 50 -26q24 -20 30 -48q4 -15 4 -30q0 -13 -2 -26q-6 -28 -22 -54t-38 -44z"/>
<glyph glyph-name="ecircumflex" horiz-adv-x="963" unicode="ê" d="M550 912q-52 0 -88.5 -29.5t-61 -76t-38 -104.5t-19.5 -115q83 15 140.5 38.5t92.5 53.5q34 29 50 65q15 33 15 69q1 27 -9 47q-8 18 -21.5 29.5t-29.5 17t-31 5.5zM880 789q0 -56 -23.5 -100t-64 -78t-94 -59.5t-114 -44t-124.5 -31t-124 -21.5q0 -87 16.5 -143.5 t42.5 -89t59 -45t66 -12.5q25 0 59.5 7t71 28t72 60t63.5 103l116 -56q-44 -101 -95.5 -165t-107.5 -100.5t-115 -50.5t-119 -14h-7q-90 0 -162 26q-76 27 -129.5 82.5t-82 140t-28.5 198.5q0 66 13 138t40.5 141t69.5 131.5t99.5 109.5t131 75t163.5 28q68 0 124.5 -15 t97 -46.5t63 -80.5t22.5 -116zM579 1603h21l310 -347l-89 -94l-256 212h-2l-279 -205l-72 97z"/>
<glyph glyph-name="edieresis" horiz-adv-x="963" unicode="ë" d="M550 912q-52 0 -88.5 -29.5t-61 -76t-38 -104.5t-19.5 -115q83 15 140.5 38.5t92.5 53.5q34 29 50 65q15 33 15 69q1 27 -9 47q-8 18 -21.5 29.5t-29.5 17t-31 5.5zM880 789q0 -56 -23.5 -100t-64 -78t-94 -59.5t-114 -44t-124.5 -31t-124 -21.5q0 -87 16.5 -143.5 t42.5 -89t59 -45t66 -12.5q25 0 59.5 7t71 28t72 60t63.5 103l116 -56q-44 -101 -95.5 -165t-107.5 -100.5t-115 -50.5t-119 -14h-7q-90 0 -162 26q-76 27 -129.5 82.5t-82 140t-28.5 198.5q0 66 13 138t40.5 141t69.5 131.5t99.5 109.5t131 75t163.5 28q68 0 124.5 -15 t97 -46.5t63 -80.5t22.5 -116zM396 1228q-27 0 -50 11t-39.5 30.5t-26 46t-9.5 57.5q0 33 12 63t31.5 52.5t45.5 36t54 13.5t50.5 -11.5t38.5 -31t25 -45.5t9 -56q0 -35 -11 -65t-30 -52.5t-45 -35.5t-55 -13zM752 1228q-27 0 -50 11t-39.5 30.5t-26 46t-9.5 57.5 q0 33 12 63t31.5 52.5t45.5 36t54 13.5t50.5 -11.5t38.5 -31t25 -45.5t9 -56q0 -35 -11 -65.5t-30 -53t-45 -35t-55 -12.5z"/>
<glyph glyph-name="igrave" horiz-adv-x="704" unicode="ì" d="M509 809q0 -33 -4.5 -83.5t-12 -108.5t-15.5 -118.5t-15.5 -114.5t-12 -97t-4.5 -66q0 -34 10 -44t21 -10q23 0 48 35.5t51 127.5l111 -33q-9 -44 -32.5 -99.5t-62.5 -104.5t-93 -82.5t-123 -33.5q-57 0 -94.5 15.5t-60 45.5t-32 73t-9.5 97q0 40 5 91t12 106.5t16 112 t16 109.5t12 98.5t5 77.5q0 34 -10 44t-21 10q-23 0 -48 -35.5t-51 -127.5l-111 33q9 44 33 99.5t64 104.5t95 82.5t124 33.5q53 0 89 -17t58.5 -48t32 -75t9.5 -98zM162 1377q-19 19 -33 45q-13 25 -17 52l-2 16q0 20 6 38q8 26 34 48q26 20 52 24q10 2 19 2q15 0 31 -4 q24 -8 45.5 -26.5t36.5 -44.5l159 -286l-99 -83z"/>
<glyph glyph-name="iacute" horiz-adv-x="704" unicode="í" d="M509 809q0 -33 -4.5 -83.5t-12 -108.5t-15.5 -118.5t-15.5 -114.5t-12 -97t-4.5 -66q0 -34 10 -44t21 -10q23 0 48 35.5t51 127.5l111 -33q-9 -44 -32.5 -99.5t-62.5 -104.5t-93 -82.5t-123 -33.5q-57 0 -94.5 15.5t-60 45.5t-32 73t-9.5 97q0 40 5 91t12 106.5t16 112 t16 109.5t12 98.5t5 77.5q0 34 -10 44t-21 10q-23 0 -48 -35.5t-51 -127.5l-111 33q9 44 33 99.5t64 104.5t95 82.5t124 33.5q53 0 89 -17t58.5 -48t32 -75t9.5 -98zM334 1158l-89 83l182 286q17 26 41 45q24 18 51 26q17 5 34 5q9 1 19 -1q26 -4 50 -26q24 -20 30 -48 q4 -15 4 -30q0 -13 -2 -26q-6 -28 -22 -54t-38 -44z"/>
<glyph glyph-name="icircumflex" horiz-adv-x="704" unicode="î" d="M509 809q0 -33 -4.5 -83.5t-12 -108.5t-15.5 -118.5t-15.5 -114.5t-12 -97t-4.5 -66q0 -34 10 -44t21 -10q23 0 48 35.5t51 127.5l111 -33q-9 -44 -32.5 -99.5t-62.5 -104.5t-93 -82.5t-123 -33.5q-57 0 -94.5 15.5t-60 45.5t-32 73t-9.5 97q0 40 5 91t12 106.5t16 112 t16 109.5t12 98.5t5 77.5q0 34 -10 44t-21 10q-23 0 -48 -35.5t-51 -127.5l-111 33q9 44 33 99.5t64 104.5t95 82.5t124 33.5q53 0 89 -17t58.5 -48t32 -75t9.5 -98zM399 1603h21l290 -347l-89 -94l-242 212h-2l-263 -205l-72 97z"/>
<glyph glyph-name="idieresis" horiz-adv-x="704" unicode="ï" d="M509 809q0 -33 -4.5 -83.5t-12 -108.5t-15.5 -118.5t-15.5 -114.5t-12 -97t-4.5 -66q0 -34 10 -44t21 -10q23 0 48 35.5t51 127.5l111 -33q-9 -44 -32.5 -99.5t-62.5 -104.5t-93 -82.5t-123 -33.5q-57 0 -94.5 15.5t-60 45.5t-32 73t-9.5 97q0 40 5 91t12 106.5t16 112 t16 109.5t12 98.5t5 77.5q0 34 -10 44t-21 10q-23 0 -48 -35.5t-51 -127.5l-111 33q9 44 33 99.5t64 104.5t95 82.5t124 33.5q53 0 89 -17t58.5 -48t32 -75t9.5 -98zM183 1228q-27 0 -50 11t-39.5 30.5t-26 46t-9.5 57.5q0 33 12 63t31.5 52.5t45.5 36t54 13.5t50.5 -11.5 t38.5 -31t25 -45.5t9 -56q0 -35 -11 -65t-30 -52.5t-45 -35.5t-55 -13zM539 1228q-27 0 -50 11t-39.5 30.5t-26 46t-9.5 57.5q0 33 12 63t31.5 52.5t45.5 36t54 13.5t50.5 -11.5t38.5 -31t25 -45.5t9 -56q0 -35 -11 -65.5t-30 -53t-45 -35t-55 -12.5z"/>
<glyph glyph-name="eth" horiz-adv-x="1069" unicode="ð" d="M498 112q39 0 70 19.5t54 52t38.5 75t25 89.5t14 94.5t4.5 89.5q0 72 -6 137t-23 114.5t-47 78.5t-78 29q-59 0 -100.5 -38.5t-67 -99.5t-37 -137t-11.5 -151q0 -76 7.5 -140.5t26.5 -112t50.5 -74t79.5 -26.5zM251 1227l106 117q-36 22 -81 39t-99 28l34 145 q90 -8 157 -30t114 -45l112 137l113 -106l-112 -103q85 -60 154.5 -139t119 -176t76.5 -211.5t27 -244.5q0 -87 -13 -170t-40 -156t-68 -135t-97 -106t-127 -69t-157 -25q-81 0 -155.5 25.5t-131.5 82t-90.5 147t-33.5 221.5q0 59 11 124t35 128.5t60.5 121.5t88 102 t117.5 70t148 26q39 0 69 -8.5t53.5 -21.5t42 -30t33.5 -33h2q-5 42 -27.5 92t-54.5 96.5t-69.5 84.5t-72.5 58l-126 -145z"/>
<glyph glyph-name="ntilde" horiz-adv-x="1250" unicode="ñ" d="M736 208q0 61 8 139t17.5 156.5t17.5 150t8 118.5q0 46 -13 66.5t-45 20.5q-31 0 -64 -33t-64.5 -88t-59.5 -127.5t-49 -151.5t-33.5 -159.5t-12.5 -151.5q0 -14 0.5 -34.5t1.5 -41.5t2 -40.5t2 -31.5h-264q-2 21 -3.5 35.5t-2 25t-0.5 19v18.5q0 44 5.5 106.5 t13.5 132.5t18 142t18 136t13.5 113.5t5.5 74.5q0 34 -9 44t-20 10q-23 0 -48 -35.5t-51 -127.5l-111 33q9 44 27.5 99.5t51 104.5t80.5 82.5t115 33.5q33 0 64 -8.5t55 -30t38.5 -57.5t14.5 -90q0 -20 -1 -35.5t-2.5 -29t-4 -27.5t-4.5 -31h2q36 92 78.5 152t88 95t92 48.5 t90.5 13.5q65 0 111.5 -22.5t76.5 -63.5t44 -99t14 -130q0 -57 -8 -122.5t-17.5 -133t-17.5 -133.5t-8 -122q0 -34 10 -44t21 -10q23 0 48 35.5t51 127.5l111 -33q-9 -44 -32.5 -99.5t-62 -104.5t-92.5 -82.5t-123 -33.5q-57 0 -94 15.5t-58.5 45.5t-30.5 73t-9 97z M588 1326q-12 0 -28 -4t-33.5 -13.5t-35.5 -26t-34 -40.5l-108 68q16 46 42.5 83.5t58 64t66.5 40.5t69 14q48 0 79 -12t57 -27t51.5 -27t62.5 -12q36 0 70 28.5t60 76.5l110 -59q-21 -64 -49.5 -108.5t-61 -72t-66 -40t-63.5 -12.5q-41 0 -73.5 12.5t-61 27t-55.5 27 t-57 12.5z"/>
<glyph glyph-name="ograve" horiz-adv-x="1055" unicode="ò" d="M470 -23q-104 0 -181.5 37t-129 100t-77 148t-25.5 181q0 123 36 232.5t103 192t162.5 131t213.5 48.5q85 0 160.5 -30.5t131 -89t88 -143.5t32.5 -194q0 -122 -35.5 -233t-102 -195.5t-161.5 -134.5t-215 -50zM701 530v25q0 27 -1 55q-2 42 -8.5 84.5t-18 81.5 t-29.5 68.5t-44 47.5t-60 19h-3q-45 0 -81 -32q-38 -33 -64.5 -89t-41 -131t-14.5 -159q0 -62 7.5 -130t26.5 -125t51 -94.5t81 -37.5q35 0 63 19.5t50 51.5t37.5 74.5t26 89t16 93.5t6.5 89zM388 1377q-19 19 -33 45q-13 25 -17 52l-2 16q0 20 6 38q8 26 34 48q26 20 52 24 q10 2 19 2q15 0 31 -4q24 -8 45.5 -26.5t36.5 -44.5l159 -286l-99 -83z"/>
<glyph glyph-name="oacute" horiz-adv-x="1055" unicode="ó" d="M470 -23q-104 0 -181.5 37t-129 100t-77 148t-25.5 181q0 123 36 232.5t103 192t162.5 131t213.5 48.5q85 0 160.5 -30.5t131 -89t88 -143.5t32.5 -194q0 -122 -35.5 -233t-102 -195.5t-161.5 -134.5t-215 -50zM701 530v25q0 27 -1 55q-2 42 -8.5 84.5t-18 81.5 t-29.5 68.5t-44 47.5t-60 19h-3q-45 0 -81 -32q-38 -33 -64.5 -89t-41 -131t-14.5 -159q0 -62 7.5 -130t26.5 -125t51 -94.5t81 -37.5q35 0 63 19.5t50 51.5t37.5 74.5t26 89t16 93.5t6.5 89zM577 1158l-89 83l182 286q17 26 41 45q24 18 51 26q17 5 34 5q9 1 19 -1 q26 -4 50 -26q24 -20 30 -48q4 -15 4 -30q0 -13 -2 -26q-6 -28 -22 -54t-38 -44z"/>
<glyph glyph-name="ocircumflex" horiz-adv-x="1055" unicode="ô" d="M470 -23q-104 0 -181.5 37t-129 100t-77 148t-25.5 181q0 123 36 232.5t103 192t162.5 131t213.5 48.5q85 0 160.5 -30.5t131 -89t88 -143.5t32.5 -194q0 -122 -35.5 -233t-102 -195.5t-161.5 -134.5t-215 -50zM701 530v25q0 27 -1 55q-2 42 -8.5 84.5t-18 81.5 t-29.5 68.5t-44 47.5t-60 19h-3q-45 0 -81 -32q-38 -33 -64.5 -89t-41 -131t-14.5 -159q0 -62 7.5 -130t26.5 -125t51 -94.5t81 -37.5q35 0 63 19.5t50 51.5t37.5 74.5t26 89t16 93.5t6.5 89zM593 1603h21l310 -347l-89 -94l-256 212h-2l-279 -205l-72 97z"/>
<glyph glyph-name="otilde" horiz-adv-x="1055" unicode="õ" d="M470 -23q-104 0 -181.5 37t-129 100t-77 148t-25.5 181q0 123 36 232.5t103 192t162.5 131t213.5 48.5q85 0 160.5 -30.5t131 -89t88 -143.5t32.5 -194q0 -122 -35.5 -233t-102 -195.5t-161.5 -134.5t-215 -50zM701 530v25q0 27 -1 55q-2 42 -8.5 84.5t-18 81.5 t-29.5 68.5t-44 47.5t-60 19h-3q-45 0 -81 -32q-38 -33 -64.5 -89t-41 -131t-14.5 -159q0 -62 7.5 -130t26.5 -125t51 -94.5t81 -37.5q35 0 63 19.5t50 51.5t37.5 74.5t26 89t16 93.5t6.5 89zM473 1326q-12 0 -28 -4t-33.5 -13.5t-35.5 -26t-34 -40.5l-108 68 q16 46 42.5 83.5t58 64t66.5 40.5t69 14q48 0 79 -12t57 -27t51.5 -27t62.5 -12q36 0 70 28.5t60 76.5l110 -59q-21 -64 -49.5 -108.5t-61 -72t-66 -40t-63.5 -12.5q-41 0 -73.5 12.5t-61 27t-55.5 27t-57 12.5z"/>
<glyph glyph-name="odieresis" horiz-adv-x="1055" unicode="ö" d="M470 -23q-104 0 -181.5 37t-129 100t-77 148t-25.5 181q0 123 36 232.5t103 192t162.5 131t213.5 48.5q85 0 160.5 -30.5t131 -89t88 -143.5t32.5 -194q0 -122 -35.5 -233t-102 -195.5t-161.5 -134.5t-215 -50zM701 530v25q0 27 -1 55q-2 42 -8.5 84.5t-18 81.5 t-29.5 68.5t-44 47.5t-60 19h-3q-45 0 -81 -32q-38 -33 -64.5 -89t-41 -131t-14.5 -159q0 -62 7.5 -130t26.5 -125t51 -94.5t81 -37.5q35 0 63 19.5t50 51.5t37.5 74.5t26 89t16 93.5t6.5 89zM371 1228q-27 0 -50 11t-39.5 30.5t-26 46t-9.5 57.5q0 33 12 63t31.5 52.5 t45.5 36t54 13.5t50.5 -11.5t38.5 -31t25 -45.5t9 -56q0 -35 -11 -65t-30 -52.5t-45 -35.5t-55 -13zM727 1228q-27 0 -50 11t-39.5 30.5t-26 46t-9.5 57.5q0 33 12 63t31.5 52.5t45.5 36t54 13.5t50.5 -11.5t38.5 -31t25 -45.5t9 -56q0 -35 -11 -65.5t-30 -53t-45 -35 t-55 -12.5z"/>
<glyph glyph-name="divide" horiz-adv-x="566" unicode="÷" d="M438 943.5q-1 -19.5 -12.5 -48.5t-31.5 -50.5t-47.5 -34t-60.5 -12.5q-34 0 -61 12.5t-46 34t-29 50.5t-8 62t15.5 62.5t35.5 51.5t49.5 34.5t57.5 12.5q32 0 58.5 -12.5t45 -34.5t27 -49t8.5 -54q0 -5 -1 -24.5zM418 235.5q-1 -19.5 -12.5 -48.5t-31.5 -50.5t-47.5 -34 t-60.5 -12.5q-34 0 -61 12.5t-46 34t-28 48t-9 53.5q0 5 1 24.5t14.5 49t35.5 51.5t49.5 34.5t57.5 12.5q32 0 58.5 -12.5t45 -34.5t27 -49t8.5 -54q0 -5 -1 -24.5z"/>
<glyph glyph-name="oslash" horiz-adv-x="1055" unicode="ø" d="M727 530v19q0 23 -2 53t-7 66l-339 -474q23 -37 54 -59t73 -22q39 0 70 19.5t55.5 51.5t42 74.5t29 89t17.5 93.5t7 89zM310 500q0 -39 4 -80.5t12 -82.5l341 492q-22 37 -53 59.5t-74 22.5q-51 0 -93.5 -32.5t-72.5 -89t-47 -131t-17 -158.5zM470 -23q-60 0 -110 12 t-92 35l-133 -181l-108 89l131 184q-51 63 -76 147t-25 180q0 123 36 232.5t103 192t162.5 131t213.5 48.5q109 0 199 -49l120 169l130 -101l-128 -174q43 -57 67 -132.5t24 -169.5q0 -122 -35.5 -233t-102 -195.5t-161.5 -134.5t-215 -50z"/>
<glyph glyph-name="ugrave" horiz-adv-x="1225" unicode="ù" d="M501 816q0 -41 -4 -89.5t-10 -100.5t-12.5 -105.5t-12.5 -102.5t-10 -92t-4 -74q0 -46 13 -66.5t45 -20.5q28 0 59.5 33t61.5 88t57.5 127.5t48.5 151.5t33 159t12 152q0 14 -0.5 34.5t-1 41.5t-2 40.5t-2.5 31.5h264q2 -21 3.5 -35.5t2 -25t0.5 -19v-18.5 q0 -44 -5.5 -106.5t-14 -132.5t-18.5 -142t-18.5 -136t-14 -113.5t-5.5 -74.5q0 -34 9 -44t20 -10q23 0 48 35.5t51 127.5l111 -33q-9 -44 -27.5 -99.5t-51 -104.5t-80.5 -82.5t-115 -33.5q-33 0 -64 8.5t-55 30t-38.5 57.5t-14.5 90q0 41 3.5 69.5t8.5 63.5h-2 q-36 -92 -76.5 -153.5t-83.5 -98.5t-87.5 -52t-88.5 -15q-65 0 -111.5 22.5t-76.5 63.5t-44 99t-14 130q0 57 8.5 122.5t18 133t18 133.5t8.5 122q0 34 -11 44t-22 10q-23 0 -48 -35.5t-51 -127.5l-111 33q9 44 32.5 99.5t62 104.5t92.5 82.5t123 33.5q57 0 94 -15.5 t59.5 -45.5t31.5 -73t9 -97zM460 1377q-19 19 -33 45q-13 25 -17 52l-2 16q0 20 6 38q8 26 34 48q26 20 52 24q10 2 19 2q15 0 31 -4q24 -8 45.5 -26.5t36.5 -44.5l159 -286l-99 -83z"/>
<glyph glyph-name="uacute" horiz-adv-x="1225" unicode="ú" d="M501 816q0 -41 -4 -89.5t-10 -100.5t-12.5 -105.5t-12.5 -102.5t-10 -92t-4 -74q0 -46 13 -66.5t45 -20.5q28 0 59.5 33t61.5 88t57.5 127.5t48.5 151.5t33 159t12 152q0 14 -0.5 34.5t-1 41.5t-2 40.5t-2.5 31.5h264q2 -21 3.5 -35.5t2 -25t0.5 -19v-18.5 q0 -44 -5.5 -106.5t-14 -132.5t-18.5 -142t-18.5 -136t-14 -113.5t-5.5 -74.5q0 -34 9 -44t20 -10q23 0 48 35.5t51 127.5l111 -33q-9 -44 -27.5 -99.5t-51 -104.5t-80.5 -82.5t-115 -33.5q-33 0 -64 8.5t-55 30t-38.5 57.5t-14.5 90q0 41 3.5 69.5t8.5 63.5h-2 q-36 -92 -76.5 -153.5t-83.5 -98.5t-87.5 -52t-88.5 -15q-65 0 -111.5 22.5t-76.5 63.5t-44 99t-14 130q0 57 8.5 122.5t18 133t18 133.5t8.5 122q0 34 -11 44t-22 10q-23 0 -48 -35.5t-51 -127.5l-111 33q9 44 32.5 99.5t62 104.5t92.5 82.5t123 33.5q57 0 94 -15.5 t59.5 -45.5t31.5 -73t9 -97zM620 1158l-89 83l182 286q17 26 41 45q24 18 51 26q17 5 34 5q9 1 19 -1q26 -4 50 -26q24 -20 30 -48q4 -15 4 -30q0 -13 -2 -26q-6 -28 -22 -54t-38 -44z"/>
<glyph glyph-name="ucircumflex" horiz-adv-x="1225" unicode="û" d="M501 816q0 -41 -4 -89.5t-10 -100.5t-12.5 -105.5t-12.5 -102.5t-10 -92t-4 -74q0 -46 13 -66.5t45 -20.5q28 0 59.5 33t61.5 88t57.5 127.5t48.5 151.5t33 159t12 152q0 14 -0.5 34.5t-1 41.5t-2 40.5t-2.5 31.5h264q2 -21 3.5 -35.5t2 -25t0.5 -19v-18.5 q0 -44 -5.5 -106.5t-14 -132.5t-18.5 -142t-18.5 -136t-14 -113.5t-5.5 -74.5q0 -34 9 -44t20 -10q23 0 48 35.5t51 127.5l111 -33q-9 -44 -27.5 -99.5t-51 -104.5t-80.5 -82.5t-115 -33.5q-33 0 -64 8.5t-55 30t-38.5 57.5t-14.5 90q0 41 3.5 69.5t8.5 63.5h-2 q-36 -92 -76.5 -153.5t-83.5 -98.5t-87.5 -52t-88.5 -15q-65 0 -111.5 22.5t-76.5 63.5t-44 99t-14 130q0 57 8.5 122.5t18 133t18 133.5t8.5 122q0 34 -11 44t-22 10q-23 0 -48 -35.5t-51 -127.5l-111 33q9 44 32.5 99.5t62 104.5t92.5 82.5t123 33.5q57 0 94 -15.5 t59.5 -45.5t31.5 -73t9 -97zM675 1603h21l310 -347l-89 -94l-256 212h-2l-279 -205l-72 97z"/>
<glyph glyph-name="udieresis" horiz-adv-x="1225" unicode="ü" d="M501 816q0 -41 -4 -89.5t-10 -100.5t-12.5 -105.5t-12.5 -102.5t-10 -92t-4 -74q0 -46 13 -66.5t45 -20.5q28 0 59.5 33t61.5 88t57.5 127.5t48.5 151.5t33 159t12 152q0 14 -0.5 34.5t-1 41.5t-2 40.5t-2.5 31.5h264q2 -21 3.5 -35.5t2 -25t0.5 -19v-18.5 q0 -44 -5.5 -106.5t-14 -132.5t-18.5 -142t-18.5 -136t-14 -113.5t-5.5 -74.5q0 -34 9 -44t20 -10q23 0 48 35.5t51 127.5l111 -33q-9 -44 -27.5 -99.5t-51 -104.5t-80.5 -82.5t-115 -33.5q-33 0 -64 8.5t-55 30t-38.5 57.5t-14.5 90q0 41 3.5 69.5t8.5 63.5h-2 q-36 -92 -76.5 -153.5t-83.5 -98.5t-87.5 -52t-88.5 -15q-65 0 -111.5 22.5t-76.5 63.5t-44 99t-14 130q0 57 8.5 122.5t18 133t18 133.5t8.5 122q0 34 -11 44t-22 10q-23 0 -48 -35.5t-51 -127.5l-111 33q9 44 32.5 99.5t62 104.5t92.5 82.5t123 33.5q57 0 94 -15.5 t59.5 -45.5t31.5 -73t9 -97zM464 1228q-27 0 -50 11t-39.5 30.5t-26 46t-9.5 57.5q0 33 12 63t31.5 52.5t45.5 36t54 13.5t50.5 -11.5t38.5 -31t25 -45.5t9 -56q0 -35 -11 -65t-30 -52.5t-45 -35.5t-55 -13zM820 1228q-27 0 -50 11t-39.5 30.5t-26 46t-9.5 57.5q0 33 12 63 t31.5 52.5t45.5 36t54 13.5t50.5 -11.5t38.5 -31t25 -45.5t9 -56q0 -35 -11 -65.5t-30 -53t-45 -35t-55 -12.5z"/>
<glyph glyph-name="yacute" horiz-adv-x="1148" unicode="ý" d="M542 833q22 -52 51 -128t59 -166.5t56.5 -190t43.5 -198.5h2q63 141 97 267.5t38.5 184t5 76.5t-2 40t-8 40.5t-16.5 32.5q-32 -6 -59.5 1t-48.5 23.5t-33 40.5t-12 51q0 36 12.5 62t32.5 43.5t45.5 26t51.5 8.5q57 0 96 -25.5t64 -66t36 -92.5t11 -104q0 -71 -18 -165 t-51.5 -199.5t-80.5 -217t-104 -217t-123 -199t-137.5 -164t-147 -111.5t-151.5 -41q-94 0 -143.5 44.5t-49.5 114.5q0 33 11.5 59.5t30 45.5t42 29t47.5 10q54 0 85.5 -29t39.5 -82q24 -7 50.5 2.5t53 29t52 46.5t47.5 56t39 56.5t26 48.5q-15 98 -48 212t-74.5 230 t-86.5 226.5t-85 200.5q-7 16 -16.5 35.5t-21.5 36.5t-26.5 28.5t-31.5 11.5q-14 0 -28 -6t-26.5 -23t-22 -47t-15.5 -78l-115 15q3 30 12 66t24.5 72.5t39 71t56.5 61t76 42.5t98 16q50 0 89.5 -19t70 -49.5t53 -68.5t38.5 -77zM662 1158l-89 83l182 286q17 26 41 45 q24 18 51 26q17 5 34 5q9 1 19 -1q26 -4 50 -26q24 -20 30 -48q4 -15 4 -30q0 -13 -2 -26q-6 -28 -22 -54t-38 -44z"/>
<glyph glyph-name="thorn" horiz-adv-x="1064" unicode="þ" d="M456 113q58 0 100 29t70.5 75.5t45.5 105.5t26 119.5t12 116.5t3 96q0 56 -9 95.5t-24 64t-35 35.5t-42 11q-92 0 -155 -180t-85 -554q11 -3 40.5 -8.5t52.5 -5.5zM384 798q37 70 75.5 117.5t78 77t80.5 42t83 12.5q77 0 132 -30.5t90.5 -83.5t52 -123.5t16.5 -151.5 q0 -146 -33 -270.5t-101.5 -216t-174.5 -143t-252 -51.5q-12 0 -34.5 0.5t-40.5 2.5l-8 -169q-1 -15 -2.5 -36.5t-3.5 -46.5t-4.5 -51t-5.5 -49l136 6v-156h-519v133q38 0 62 13.5t38 38.5t20 58.5t9 74.5q8 129 15 245.5t13.5 226t12.5 215t12 212.5t13 218.5t14 233.5 q1 18 2 41t2.5 48.5t4 51t5.5 48.5q-17 -1 -142 -6l8 155q71 0 124.5 6t91.5 15t61.5 19.5t34.5 20.5h111l-41 -418q-5 -47 -8.5 -83t-8 -72t-9.5 -77t-12 -98h2z"/>
<glyph glyph-name="dotlessi" horiz-adv-x="704" unicode="ı" d="M509 809q0 -33 -4.5 -83.5t-12 -108.5t-15.5 -118.5t-15.5 -114.5t-12 -97t-4.5 -66q0 -34 10 -44t21 -10q23 0 48 35.5t51 127.5l111 -33q-9 -44 -32.5 -99.5t-62.5 -104.5t-93 -82.5t-123 -33.5q-57 0 -94.5 15.5t-60 45.5t-32 73t-9.5 97q0 40 5 91t12 106.5t16 112 t16 109.5t12 98.5t5 77.5q0 34 -10 44t-21 10q-23 0 -48 -35.5t-51 -127.5l-111 33q9 44 33 99.5t64 104.5t95 82.5t124 33.5q53 0 89 -17t58.5 -48t32 -75t9.5 -98z"/>
<glyph glyph-name="OE" horiz-adv-x="2078" unicode="Œ" d="M801 132q27 -2 52 -2q35 0 78.5 5.5t96.5 24.5l49 938q2 46 6 89t8 72q-51 32 -109 45.5t-117 13.5h-24q-111 -4 -192 -52t-135 -126.5t-82.5 -179.5t-34.5 -212q-2 -31 -2 -60q0 -98 21 -195t72.5 -177.5t130.5 -128t182 -55.5zM1346 672l-17 -336q-2 -28 -4 -54.5 t-4 -50.5t-4.5 -43.5t-5.5 -32.5l275 1q45 0 90.5 15t83 49.5t62 91t29.5 139.5h135l-36 -451h-912q-75 -21 -147 -27t-131 -6h-18q-158 2 -284 58.5t-213 153.5t-127 218t-40 247q0 23 1 47q5 93 28 187t65 180t104.5 161t146.5 130t190.5 86.5t237.5 31.5q25 0 57 -2 t67 -6t70.5 -10t67.5 -15h856l-9 -397h-135q1 14 1 26q0 65 -19 113t-53.5 77t-76 38.5t-79.5 9.5h-8l-74 -2q-32 -1 -58 -6.5t-44.5 -23.5t-29.5 -53t-14 -95l-16 -307h241v177h158l-26 -498h-135q1 11 1 22q0 49 -13 82.5t-39 51.5t-58.5 21t-64.5 3h-18z"/>
<glyph glyph-name="oe" horiz-adv-x="1605" unicode="œ" d="M1192 912q-52 0 -88.5 -29.5t-61 -76t-38 -104.5t-19.5 -115q83 15 140.5 38.5t92.5 53.5t50 64.5t15 69.5q0 27 -9 46t-22 30.5t-29 17t-31 5.5zM691 530v30q0 24 -1 58t-6.5 76.5t-16.5 81.5t-28.5 68.5t-43 47.5t-59.5 19h-3q-45 0 -81 -32.5t-62 -88.5t-39.5 -131 t-13.5 -159q0 -41 3 -85.5t10 -87.5t18.5 -82t29.5 -68t42.5 -46.5t57.5 -17.5q35 0 63 19.5t49 51.5t35.5 74.5t24.5 89t15 93.5t6 89zM1522 789q0 -56 -23.5 -100t-64 -78t-94 -59.5t-114 -44t-124.5 -31t-124 -21.5q0 -87 16.5 -143.5t42.5 -89t59 -45t66 -12.5 q25 0 59 7t69.5 28.5t70 60.5t62.5 103l121 -57q-44 -101 -95.5 -165t-107.5 -101t-115 -50.5t-119 -13.5q-32 0 -73 8t-84 30t-83 60t-69 97h-2q-35 -61 -77 -99t-85.5 -59.5t-87 -29t-80.5 -7.5q-104 0 -181 37t-127.5 100t-75 148t-24.5 181q0 123 34 232.5t98 192 t157 131t211 48.5q39 0 80.5 -9.5t82 -32.5t76.5 -61.5t63 -96.5h2q72 108 161 154t192 46q68 0 124.5 -15t97 -46.5t63 -80.5t22.5 -116z"/>
<glyph glyph-name="Scaron" horiz-adv-x="1229" unicode="Š" d="M610 115q55 0 101 15t80 41.5t54 61.5t22 75v10q-1 47 -25 83q-28 39 -73.5 69.5t-102.5 55t-114 47.5q-97 40 -179.5 85.5t-141.5 105t-90 135.5q-27 65 -27 149q0 14 1 28q2 42 15 87.5t38 89t64 82.5t94 68.5t126.5 46.5t162.5 17q40 0 85.5 -6t91 -18.5t87 -31 t74.5 -42.5h2l-3 84h158l-25 -479h-134q-19 173 -106 260q-85 85 -225 85h-6q-44 0 -84.5 -13.5t-72 -36.5t-51 -55.5t-21.5 -70.5v-14q0 -41 15 -73q18 -38 57.5 -71.5t100 -65t143.5 -65.5q50 -21 103.5 -45.5t104 -55t95 -67.5t76.5 -82q32 -46 50 -102q14 -45 15 -97 q0 -12 -1 -25q-5 -91 -46.5 -167t-113.5 -130.5t-170.5 -85t-217.5 -30.5q-40 0 -84.5 6.5t-90 19t-90 31.5t-84.5 44h-2l3 -87h-158l25 479h134q9 -86 40 -150.5t78.5 -108t109 -65t133.5 -21.5zM647 1576h-40l-384 310l57 84l370 -178l391 179l41 -82z"/>
<glyph glyph-name="scaron" horiz-adv-x="914" unicode="š" d="M174 358q28 0 51 -10t39.5 -27.5t26 -40.5t9.5 -49q0 -33 -13 -60q5 -11 20 -22t34 -19t39 -13t35 -5q45 0 76 11t50 29t27.5 41t8.5 47q0 28 -17 52t-45.5 45.5t-66 43t-77.5 44.5q-73 42 -126.5 78t-88 73.5t-51.5 79.5t-17 96t25.5 106.5t75 94.5t122 68t166.5 26 q62 0 123.5 -15.5t110.5 -44.5t79.5 -71t30.5 -94q0 -27 -9 -51.5t-25.5 -43t-40 -29.5t-53.5 -11q-28 0 -51 10t-39.5 27.5t-25.5 40t-9 47.5q0 32 13 59q-8 11 -21.5 18.5t-29 12.5t-31.5 7.5t-29 2.5q-22 0 -46 -7.5t-44.5 -21t-34 -34t-13.5 -45.5q0 -21 6.5 -37.5 t26.5 -35.5t57.5 -42.5t100.5 -59.5q51 -29 105 -61t98.5 -72t73 -89.5t28.5 -113.5q0 -69 -32.5 -127t-88.5 -100t-133 -65.5t-165 -23.5q-74 0 -140 16.5t-116.5 47.5t-80 75t-29.5 99q0 31 10 57.5t28 45.5t42 29.5t51 10.5zM497 1167h-21l-315 347l87 95l260 -214h2 l265 219l75 -93z"/>
<glyph glyph-name="Ydieresis" horiz-adv-x="1362" unicode="Ÿ" d="M857 568l-12 -232q-2 -28 -4 -55t-4 -51.5t-4.5 -44.5t-5.5 -33l164 6l-8 -158h-593l7 135q34 2 61.5 7t47.5 22t31.5 52t14.5 97l10 179l-347 595q-14 24 -26.5 51t-22 53.5t-15 50t-4.5 40.5l-99 -6l8 158h598l-7 -135q-12 1 -23 1q-31 0 -56 -6q-34 -8 -52 -29 q-19 -21 -20 -52q0 -31 22 -72l143 -257q9 -16 20.5 -38t25.5 -50.5t27 -57.5t20 -51h3q11 23 37.5 72.5t68.5 127.5q155 275 171.5 302t33 52t30.5 41v2l-157 -8l8 158h452l-7 -135q-36 -6 -66 -20t-58.5 -39.5t-57 -65t-61.5 -94.5zM950 1632q-27 0 -49.5 11t-39 30.5 t-25.5 46t-9 57.5q0 34 11.5 64t31 52.5t45.5 36t54 13.5q27 0 49.5 -11.5t38.5 -31t24.5 -46t8.5 -56.5q0 -33 -11 -63.5t-30 -53t-44.5 -36t-54.5 -13.5zM593 1632q-27 0 -49.5 11t-39 30.5t-25.5 46t-9 57.5q0 34 11.5 64t31 52.5t45.5 36t54 13.5q27 0 49.5 -11.5 t38.5 -31t24.5 -46t8.5 -56.5q0 -33 -11 -63t-30 -53t-44.5 -36.5t-54.5 -13.5z"/>
<glyph glyph-name="circumflex" horiz-adv-x="878" unicode="ˆ" d="M457 1603h21l310 -347l-89 -94l-256 212h-2l-279 -205l-72 97z"/>
<glyph glyph-name="caron" horiz-adv-x="873" unicode="ˇ" d="M428 1167h-21l-315 347l87 95l260 -214h2l265 219l75 -93z"/>
<glyph glyph-name="ring" horiz-adv-x="673" unicode="˚" d="M348 1628q43 0 85 -13.5t75 -41.5q32 -29 52 -71q19 -40 19 -93v-6q-2 -57 -25 -103.5t-59 -79t-80.5 -50t-88.5 -17.5q-43 0 -85 15t-75 44q-33 30 -53 72q-19 40 -19 92v5q1 52 22.5 97.5t57 78.5t81 52t93.5 19zM341 1507q-13 0 -26.5 -6.5t-24.5 -18.5t-19 -31 t-9 -45v-14q0 -54 20 -84q22 -33 57 -32h2q26 1 49.5 26.5t26.5 73.5q1 10 1 19q0 53 -20 81q-23 31 -55 31h-2z"/>
<glyph glyph-name="tilde" horiz-adv-x="910" unicode="˜" d="M331 1326q-12 0 -28 -4t-33.5 -13.5t-35.5 -26t-34 -40.5l-108 68q16 46 42.5 83.5t58 64t66.5 40.5t69 14q48 0 79 -12t57 -27t51.5 -27t62.5 -12q36 0 70 28.5t60 76.5l110 -59q-21 -64 -49.5 -108.5t-61 -72t-66 -40t-63.5 -12.5q-41 0 -73.5 12.5t-61 27t-55.5 27 t-57 12.5z"/>
<glyph glyph-name="Gamma" horiz-adv-x="1160" unicode="Γ" d="M1023 1037q1 14 1 26q0 65 -19 113t-53.5 77t-76 38.5t-79.5 9.5h-8l-74 -2q-32 -1 -58 -6.5t-44.5 -23.5t-29.5 -53t-14 -95l-41 -785q-2 -28 -4 -55t-4 -51.5t-4.5 -44.5t-5.5 -33q16 1 42.5 2t54 1.5t51 1.5t34.5 1l-8 -158h-611l7 135q34 2 61.5 7t47.5 22t31.5 52 t14.5 97l41 785q1 28 3.5 55t4.5 51.5t4.5 44.5t5.5 33q-17 -1 -39 -2l-44 -2t-41 -1.5t-30 -0.5l8 158h1020l-9 -397h-135z"/>
<glyph glyph-name="Delta" horiz-adv-x="1398" unicode="Δ" d="M242 146l763 -3l-347 1006zM797 1467l516 -1467h-1303l636 1467h151z"/>
<glyph glyph-name="Pi" horiz-adv-x="1617" unicode="Π" d="M1357 336q-2 -28 -4 -55t-4 -51.5t-4.5 -44.5t-5.5 -33q16 1 38.5 2t44.5 1.5t41 1.5t30 1l-8 -158h-583l7 135q34 2 61.5 7t47.5 22t31.5 52t14.5 97l47 966l-415 -5q-27 0 -49 -6.5t-38 -23.5t-26.5 -47t-14.5 -78l-41 -783q-2 -28 -4 -55t-4 -51.5t-4.5 -44.5 t-5.5 -33q16 1 38.5 2t44.5 1.5t41 1.5t30 1l-8 -158h-583l7 135q34 2 61.5 7t47.5 22t31.5 52t14.5 97l41 785q1 28 3.5 55t4.5 51.5t4.5 44.5t5.5 33q-17 -1 -39 -2l-44 -2t-41 -1.5t-30 -0.5l8 158h1413l-7 -135q-35 -2 -62 -7t-47 -22t-31.5 -52t-14.5 -97z"/>
<glyph glyph-name="pi" horiz-adv-x="1244" unicode="π" d="M153 232q25 0 47 -6t40 -17q14 19 26 57t22 90t16 113t11 124t8 124t6 113q-21 -2 -47 -6t-52 -10q-28 -6 -56 -15t-54 -21l-59 95q29 33 65 65t78 55q42 24 90 39t98 15q76 1 138 -5t123 -13t127 -13t151 -5q41 0 93 11t121 44l69 -92q-16 -20 -36 -41t-44 -41t-52 -38 q-26 -18 -53 -29q-7 -133 -15 -273t-15 -273v-15q-1 -36 7 -56q10 -24 28 -33t39 -4q22 5 45 17l58 -90q-24 -27 -52 -51t-61 -42q-31 -18 -67 -28t-73 -10q-54 -1 -90 15q-37 16 -59 41t-33 58t-15 67q-3 30 -3 60q1 4 1 9q0 34 2 62q3 53 7 125q5 72 9 147q4 74 8 141 t6 109q-30 2 -68 5q-38 2 -78 6t-79 7q-38 3 -64 6q-3 -81 -9 -177t-15 -187t-23 -171t-34 -131q-38 -96 -98 -144t-137 -48q-29 -1 -53 9t-42 28t-29 42q-8 20 -8 45v10q1 35 15 59t32 40q20 16 43 24t44 8z"/>
<glyph glyph-name="endash" horiz-adv-x="1153" unicode="–" d="M112 750h941l-11 -208l-941 -7z"/>
<glyph glyph-name="emdash" horiz-adv-x="1359" unicode="—" d="M113 750h1146l-11 -208l-1146 -7z"/>
<glyph glyph-name="quoteleft" horiz-adv-x="460" unicode="‘" d="M105.023 1118q5 98.9941 56.9971 213.987q51.9961 114.993 154.99 232.985l75.9951 -56.9961q-16.999 -19.999 -39.4971 -56.4971q-22.499 -36.4971 -42.998 -80.4951q-20.498 -43.9971 -35.4971 -92.4941t-15.999 -93.4941q14.999 5 23.998 6q9 1 19.999 1 q26.998 0 52.4971 -8q25.498 -8 43.4971 -24.998q19.999 -16 29.998 -41.998q8.99902 -20.998 8 -49.9971v-10.999q-1 -29.998 -13 -57.9961q-11.999 -27.999 -32.498 -48.9971q-20.498 -20.999 -48.4971 -33.998q-27.998 -12.999 -60.9961 -12.999h-4.99902 q-43.998 -1 -75.9961 14.999q-33.998 15.999 -55.9961 45.9971q-21.999 28.998 -31.998 68.9961q-8 32.9971 -8 69.9951v15.999z"/>
<glyph glyph-name="quotesinglbase" horiz-adv-x="509" unicode="‚" d="M388 65q-5 -99 -57 -214t-155 -233l-76 57q17 20 39.5 56.5t43 80.5t35.5 92.5t16 93.5q-15 -5 -24 -6t-20 -1q-27 0 -52.5 8t-43.5 25q-20 16 -30 42q-9 21 -8 50v11q1 30 13 58t32.5 49t48.5 34t61 13h5q44 1 76 -15q34 -16 56 -46q22 -29 32 -69q8 -33 8 -70v-16z"/>
<glyph glyph-name="quotedblleft" horiz-adv-x="849" unicode="“" d="M105.023 1118q5 98.9941 56.9971 213.987q51.9961 114.993 154.99 232.985l75.9951 -56.9961q-16.999 -19.999 -39.4971 -56.4971q-22.499 -36.4971 -42.998 -80.4951q-20.498 -43.9971 -35.4971 -92.4941t-15.999 -93.4941q14.999 5 23.998 6q9 1 19.999 1 q26.998 0 52.4971 -8q25.498 -8 43.4971 -24.998q19.999 -16 29.998 -41.998q8.99902 -20.998 8 -49.9971v-10.999q-1 -29.998 -13 -57.9961q-11.999 -27.999 -32.498 -48.9971q-20.498 -20.999 -48.4971 -33.998q-27.998 -12.999 -60.9961 -12.999h-4.99902 q-43.998 -1 -75.9961 14.999q-33.998 15.999 -55.9961 45.9971q-21.999 28.998 -31.998 68.9961q-8 32.9971 -8 69.9951v15.999zM494.023 1118q5 98.9941 56.9971 213.987q51.9961 114.993 154.99 232.985l75.9951 -56.9961q-16.999 -19.999 -39.4971 -56.4971 q-22.499 -36.4971 -42.998 -80.4951q-20.498 -43.9971 -35.4971 -92.4941t-15.999 -93.4941q14.999 5 23.998 6q9 1 19.999 1q26.998 0 52.4971 -8q25.498 -8 43.4971 -24.998q19.999 -16 29.998 -41.998q8.99902 -20.998 8 -49.9971v-10.999q-1 -29.998 -13 -57.9961 q-11.999 -27.999 -32.498 -48.9971q-20.498 -20.999 -48.4971 -33.998q-27.998 -12.999 -60.9961 -12.999h-4.99902q-43.998 -1 -75.9961 14.999q-33.998 15.999 -55.9961 45.9971q-21.999 28.998 -31.998 68.9961q-8 32.9971 -8 69.9951v15.999z"/>
<glyph glyph-name="quotedblright" horiz-adv-x="810" unicode="”" d="M425 1341q-5 -99 -57 -214t-155 -233l-76 57q17 20 39.5 56.5t43 80.5t35.5 92.5t16 93.5q-15 -5 -24 -6t-20 -1q-27 0 -52.5 8t-43.5 25q-20 16 -30 42q-9 21 -8 50v11q1 30 13 58t32.5 49t48.5 34t61 13h5q44 1 76 -15q34 -16 56 -46q22 -29 32 -69q8 -33 8 -70v-16z M805 1341q-5 -99 -57 -214t-155 -233l-76 57q17 20 39.5 56.5t43 80.5t35.5 92.5t16 93.5q-15 -5 -24 -6t-20 -1q-27 0 -52.5 8t-43.5 25q-20 16 -30 42q-9 21 -8 50v11q1 30 13 58t32.5 49t48.5 34t61 13h5q44 1 76 -15q34 -16 56 -46q22 -29 32 -69q8 -33 8 -70v-16z"/>
<glyph glyph-name="dagger" horiz-adv-x="1039" unicode="†" d="M400 -554q-2 132 -2 276t-3 290t-8 290q-5 143 -15 271q10 23 20 57t22 73q10 39 20 79t21 77q-111 -31 -175 -37t-75 -7q-28 1 -54 5q-25 4 -45 16t-32 36q-10 19 -9 47v10q2 35 15 57t34 34t47 16t53 5q65 0 130 -16t130 -28q-6 40 -12 86t-13 93q-6 48 -11 94t-6 87v8 q0 27 6 56q6 33 24 61t46 45q28 18 68 18t64 -18q24 -17 38 -45q13 -28 16 -61q1 -14 1 -28q0 -18 -2 -36q-5 -41 -15 -87t-21 -94t-23 -94t-20 -86q66 13 133 29t132 16q27 -1 53 -5t45 -16t30 -34q9 -19 9 -47v-10q-2 -35 -16 -57t-34 -36q-21 -12 -47 -16t-54 -5 q-41 3 -75 9t-64 12t-56 11q-26 6 -52 11q6 -36 12 -76t14 -80q6 -39 13 -73t15 -56q-24 -129 -44 -271t-38 -288t-34 -290t-31 -278h-125z"/>
<glyph glyph-name="daggerdbl" horiz-adv-x="1077" unicode="‡" d="M672 498l-92 -356q58 13 94 22q36 10 64 14q26 4 49 6t54 2q28 0 54 -4q25 -4 45 -18q20 -12 31 -34t9 -58q-2 -34 -15 -56t-33 -34t-47 -18q-26 -4 -54 -4q-54 0 -114 15t-135 29q4 -40 10 -88t10 -96t8 -97q3 -48 5 -89v-8q0 -26 -6 -56q-7 -34 -24 -62t-45 -45 q-28 -18 -67 -18q-40 0 -65 18q-25 17 -38 45t-16 62q-1 13 -1 24q0 20 3 40q6 42 14 90t18 96l20 96t21 88q-33 -6 -67 -14t-67 -14q-33 -8 -64 -12t-57 -4q-28 0 -54 4t-45 18q-19 12 -30 34q-9 19 -9 46v10q2 36 16 58t34 34q22 12 48 18q26 4 54 4q36 0 72 -5t68 -12 t62 -15t54 -13l-60 357l87 354q-54 -16 -98 -24t-76 -14q-31 -4 -51 -5t-25 -1q-28 0 -54 4q-25 4 -45 18q-20 12 -32 34t-9 58q2 35 15 57t34 34q21 13 47 17t53 4q66 0 130 -16t130 -28q-6 40 -12 88t-12 98t-12 97q-6 48 -7 89v8q0 27 6 56q7 32 23 60t44 46t68 18 t65 -18t38 -46t16 -60q1 -14 1 -28q0 -18 -2 -36q-6 -41 -16 -89q-10 -47 -22 -97t-24 -98t-21 -89q67 13 133 29t133 16q27 0 53 -4t44 -17q19 -12 30 -34q9 -19 9 -47v-10q-1 -36 -15 -58t-35 -34t-47 -18q-26 -4 -54 -4q-42 4 -76 10t-64 11q-30 6 -56 12t-51 11z"/>
<glyph glyph-name="ellipsis" horiz-adv-x="1584" unicode="…" d="M1459 112.5q-1 -19.5 -12.5 -48.5t-31.5 -50.5t-47.5 -34t-60.5 -12.5q-34 0 -61 12.5t-46 34t-29 50.5t-8 62t15.5 62.5t35.5 51.5t49.5 34.5t57.5 12.5q32 0 58.5 -12.5t45 -34.5t27 -49t8.5 -54q0 -5 -1 -24.5zM906 112.5q-1 -19.5 -12.5 -48.5t-31.5 -50.5t-47.5 -34 t-60.5 -12.5q-34 0 -61 12.5t-46 34t-29 50.5t-8 62t15.5 62.5t35.5 51.5t49.5 34.5t57.5 12.5q32 0 58.5 -12.5t45 -34.5t27 -49t8.5 -54q0 -5 -1 -24.5zM353 112.5q-1 -19.5 -12.5 -48.5t-31.5 -50.5t-47.5 -34t-60.5 -12.5q-34 0 -61 12.5t-46 34t-28 48t-9 53.5 q0 5 1 24.5t14.5 49t35.5 51.5t49.5 34.5t57.5 12.5q32 0 58.5 -12.5t45 -34.5t27 -49t8.5 -54q0 -5 -1 -24.5z"/>
<glyph glyph-name="perthousand" horiz-adv-x="2656" unicode="‰" d="M2212 629q-48 0 -77 -31t-45 -74t-22 -88t-6 -73q0 -38 6 -83q6 -46 20 -84t40 -64q25 -26 63 -25q43 0 71 29q28 28 44 70t24 89q7 47 7 83q0 45 -6 90q-7 45 -21 81t-38 58t-60 22zM1817 361q5 72 33 144t80 130t124 95t164 39h10q88 0 154 -32q70 -34 116 -90 q46 -57 68 -127q18 -59 18 -119q0 -11 -1 -22q-5 -81 -37 -155t-84 -132q-53 -57 -125 -91t-156 -34q-95 0 -165 33t-116 88t-66 126q-18 60 -18 123q0 12 1 24zM1372 629q-48 0 -77 -31t-45 -74t-22 -88t-6 -73q0 -38 6 -83q6 -46 20 -84t40 -64q25 -26 63 -25q43 0 71 29 q28 28 44 70t24 89q7 47 7 83q0 45 -6 90q-7 45 -21 81t-38 58t-60 22zM493 1327q-48 0 -77 -31q-30 -31 -46 -74t-22 -88t-5 -73q0 -38 6 -83q7 -46 21 -84t39 -64t63 -25q42 0 70 29q28 28 46 70q16 42 23 89t7 83q0 45 -6 90t-20 81t-39 58q-24 22 -60 22zM977 361 q5 72 33 144t80 130t124 95t164 39h10q88 0 154 -32q70 -34 116 -90q46 -57 68 -127q18 -59 18 -119q0 -11 -1 -22q-5 -81 -37 -155t-84 -132q-53 -57 -125 -91t-156 -34q-95 0 -165 33t-116 88t-66 126q-18 60 -18 123q0 12 1 24zM98 1059q4 72 32 144t80 130t125 95 t165 39h10q88 0 154 -32q70 -34 116 -90q46 -57 67 -127q18 -59 18 -118q0 -11 -1 -23q-4 -81 -37 -155t-87 -132q-54 -57 -125 -91t-152 -34q-95 0 -165 33t-116 88t-67 126q-18 60 -18 123q0 12 1 24zM1604 1332l-1255 -1366l-126 124l1239 1377z"/>
<glyph glyph-name="guilsinglleft" horiz-adv-x="762" unicode="‹" d="M34.0439 529.035l2 43.9971l585.964 559.966l95.9941 -104.994l-403.976 -479.971v-1.99902l347.979 -479.971l-104.994 -98.9941z"/>
<glyph glyph-name="guilsinglright" horiz-adv-x="760" unicode="›" d="M718 571l-2 -44l-586 -560l-96 105l404 480v2l-348 480l105 99z"/>
<glyph glyph-name="fraction" horiz-adv-x="935" unicode="⁄" d="M1028 1361l-983 -1394l-124 96l977 1404z"/>
<glyph glyph-name="uni2074" horiz-adv-x="819" unicode="⁴" d="M226 942l178 -3l22 244h-2zM589 822l-1 -13q-2 -32 -4.5 -61t-4.5 -44l88 3l-5 -90h-363l4 77q19 1 35 4t27.5 13t18.5 30t9 55l1 27l-310 2l6 119l-1 1l463 522h71l-28 -531l121 -2l-6 -113z"/>
<glyph glyph-name="Euro" horiz-adv-x="1621" unicode="€" d="M1131 631l-109 -153l-451 -2q36 -170 139 -256.5t259 -86.5q64 0 130.5 16.5t130 48t121 77.5t103.5 105l89 -85q-80 -104 -165.5 -168t-168 -99.5t-159.5 -48t-140 -12.5q-128 0 -234 37.5t-186 105t-133.5 161t-77.5 204.5l-219 -1l46 160l155 -1q-1 30 1 60.5t4 60.5 h-192l47 160l179 -1q33 111 92.5 211.5t147.5 176.5t203.5 121t259.5 45q81 0 169 -23.5t168 -77.5h2l7 87h158l-73 -449h-134v23q0 134 -67 212t-211 79q-85 0 -155.5 -32t-126 -87t-95 -129t-62.5 -157l687 -2l-105 -153l-610 -3q-4 -31 -5.5 -61.5t3.5 -61.5z"/>
<glyph glyph-name="trademark" horiz-adv-x="2225" unicode="™" d="M952 1434l-9 -303h-80q1 12 1 23q0 82 -34 124q-37 47 -103 46h-3h-68l-27 -518q-2 -33 -5 -63t-6 -46l98 4l-6 -113h-385l5 99q20 1 36 4t28 13t18 32q7 20 9 56l28 530h-66q-68 0 -111 -46t-48 -145h-80l23 303h785zM1856 1238l-277 -662h-156l-155 398q-6 16 -16 46 t-20 64q-10 36 -20 75t-15 75h-1q-2 -62 -4 -118t-6 -112l-8 -199q-2 -33 -7 -63t-8 -46l93 4l-6 -112h-293l5 98q20 1 36 4q16 4 26 14t16 30t10 57l33 428q2 33 5 63t6 45l-92 -3l6 110h309l176 -470q21 -56 33 -100t24 -87h1q5 18 15 44l20 52q10 27 20 49t14 33l209 479 h319l-5 -97q-21 -1 -38 -4t-29 -13t-19 -30t-7 -58l-6 -427q0 -35 -4 -64t-7 -45l92 4l-6 -112h-365l5 98q21 1 37 4q16 4 28 14t19 30t7 57l3 237q1 10 1 34v54t2 62q1 32 1 60h-1z"/>
<glyph glyph-name="partialdiff" horiz-adv-x="1036" unicode="∂" d="M461 124q49 0 87 33t68 88q28 55 48 127t31 148q11 78 15 154q2 36 1 68q0 38 -2 73q-4 7 -14 19t-27 24t-41 20t-55 8q-44 -1 -86 -33t-77 -89q-35 -58 -57 -138t-27 -179q-2 -34 -2 -63q-1 -51 5 -90q8 -62 28 -100q19 -38 46 -54t59 -16zM284 1550q66 10 124 10 q60 0 112 -10q104 -22 181 -76t129 -138q52 -82 82 -184t41 -219q6 -73 6 -148q0 -45 -2 -91q-10 -198 -57 -334t-119 -222t-163 -123q-91 -38 -189 -38q-79 -1 -149 29t-122 88t-80 144q-24 71 -23 161q0 19 1 38q7 139 48 249t107 186t153 118q87 41 187 41q22 -1 46 -5 t46 -12q23 -8 41 -18q18 -11 30 -24h2q-4 50 -16 104t-34 104t-54 94t-79 74q-47 31 -109 46q-43 10 -94 10q-24 0 -49 -2z"/>
<glyph glyph-name="product" horiz-adv-x="1634" unicode="∏" d="M1515 1366q-57 -2 -86.5 -21.5t-41.5 -52.5t-12.5 -78t-0.5 -100v-1392q0 -110 -6 -162l147 8v-90h-461v68q58 2 87.5 21t41.5 52t12.5 78.5t0.5 99.5v1556l-763 -9v-1622q0 -56 -1.5 -96t-5.5 -66l148 8v-90h-461v68q58 2 87 21t41 52t12.5 78.5t0.5 99.5v1407 q0 42 1.5 79.5t5.5 68.5l-148 -9v91h1402v-68z"/>
<glyph glyph-name="summation" horiz-adv-x="1375" unicode="∑" d="M839 -365q45 0 91 15q46 16 82 50q38 34 62 90t30 140h135l-36 -451h-1150l7 135q35 2 62 14q28 12 52 36t49 62t56 94l334 606v2l-370 745q-11 27 -23 59t-18 49l-104 -5l9 158h1153l-9 -397h-135q1 14 1 26q1 65 -17 109q-20 52 -56 80q-34 28 -78 39q-44 10 -85 10 l-384 -3l358 -720l-1 -33l-427 -779q-5 -10 -15 -26t-21 -34t-25 -36t-26 -36z"/>
<glyph glyph-name="minus" horiz-adv-x="1165" unicode="−" d="M129 767l923 -4l-11 -205l-923 -4z"/>
<glyph glyph-name="radical" horiz-adv-x="1695" unicode="√" d="M9 1024h455l133 -391q13 -35 25 -75l24 -80t21 -76q10 -37 18 -68h2q18 66 53 166t458 1265h625l-8 -156l-507 7q-44 -125 -598 -1621h-174l-265 740q-11 27 -17 49t-10 38t-6 30q-2 12 -4 23l-232 6z"/>
<glyph glyph-name="infinity" horiz-adv-x="1645" unicode="∞" d="M420 496q30 0 70 10t82 28t81 45t66 63q-24 48 -57 94t-72 84t-82 61t-87 23q-35 0 -69 -14t-61 -40q-27 -28 -44 -68t-17 -93q0 -45 14 -81t39 -61t60 -38t77 -13zM1221 487q53 1 91 19t64 51t38 77t12 96q0 42 -12 78t-37 62t-62 40t-86 14q-30 0 -67 -9 q-36 -9 -76 -29t-80 -52t-75 -79q23 -47 54 -95t68 -86t79 -63q42 -24 89 -24zM479 1138q55 0 107 -18t98 -48q46 -32 88 -77t77 -100h2q85 116 185 184t210 68q86 -1 146 -31t98 -84t54 -126t16 -157q0 -99 -25 -187t-73 -156t-118 -107q-70 -40 -159 -40q-98 0 -194 56 t-183 182h-2q-32 -45 -72 -87t-88 -73q-47 -32 -98 -51t-104 -19q-98 0 -164 36q-66 35 -108 93t-59 131q-18 73 -18 148q0 95 26 179q25 84 75 148t121 100t162 36z"/>
<glyph glyph-name="approxequal" horiz-adv-x="1176" unicode="≈" d="M381 397q-43 1 -77 -7t-64 -20t-59 -30q-28 -17 -57 -36l12 212q34 24 62 43t54 32q28 13 58 20t72 7q55 0 97 -11q41 -11 75 -27t62 -35t58 -35q28 -16 60 -27t73 -11q69 0 130 25t112 67l-13 -211q-44 -45 -106 -73t-143 -27q-51 1 -89 11t-70 26t-59 35t-55 35t-60 26 t-73 11zM381 735q-43 1 -77 -7t-64 -20t-59 -30q-28 -17 -57 -36l12 212q34 24 64 43t62 32t66 20t74 7q56 0 96 -11t71 -27t57 -35t52 -35t57 -27t72 -11q69 0 130 25t112 67l-13 -211q-22 -22 -46 -40q-24 -17 -50 -31q-28 -14 -60 -22t-73 -7q-51 1 -91 11t-74 26t-64 35 t-59 35t-63 26t-75 11z"/>
<glyph glyph-name="notequal" horiz-adv-x="1091" unicode="≠" d="M455 333l-191 -263l-129 97l120 165l-188 -1l9 187l313 -2l142 195l-445 -1l10 186l568 -2l177 243l132 -95l-109 -149h154l-9 -180l-277 -1l-143 -197l409 -1l-9 -179z"/>
<glyph glyph-name="lessequal" horiz-adv-x="1128" unicode="≤" d="M98 831l943 409l-11 -206l-672 -290v-2l642 -290l-11 -208l-901 401zM976 0h-923l9 164l924 10z"/>
<glyph glyph-name="greaterequal" horiz-adv-x="1132" unicode="≥" d="M1045 655l-943 -409l11 206l672 290v2l-642 290l11 208l901 -401zM1012 0h-923l9 164l923 10z"/>
<glyph glyph-name="lozenge" horiz-adv-x="994" unicode="◊" d="M521 -34h-109l-340 741l4 75l428 773h109l328 -761l-3 -71zM491 285h2l252 472l-207 489h-2q-30 -56 -62 -118t-65 -124q-33 -64 -65 -126t-64 -119z"/>
<glyph glyph-name="Circumflex" horiz-adv-x="1043" unicode="" d="M526 1988h40l384 -307l-57 -85l-367 179l-394 -176l-40 82z"/>
<glyph glyph-name="Ring" horiz-adv-x="732" unicode="" d="M364 2061q48 0 97 -16t88.5 -48t64.5 -81t25 -116q0 -62 -24.5 -110.5t-63.5 -82.5t-87.5 -51.5t-96.5 -17.5q-50 0 -99 15t-88 46.5t-63 80.5t-24 116q0 59 24 107.5t62.5 83.5t87 54.5t97.5 19.5zM364 1957q-26 0 -44 -13.5t-29 -34.5t-16 -46.5t-5 -49.5 q0 -80 28 -125t75 -45q35 0 61.5 33t26.5 99q0 88 -25.5 135t-71.5 47z"/>
<glyph glyph-name="Tilde" horiz-adv-x="1046" unicode="" d="M379 1736q-20 0 -43 -4t-47.5 -15t-48 -30.5t-44.5 -49.5l-104 65q23 57 55.5 98t70 67t77 38.5t76.5 12.5q51 0 89.5 -16t72 -34.5t66.5 -34.5t72 -16q21 0 45.5 8.5t48.5 25t46 40t37 52.5l106 -54q-27 -80 -61.5 -129.5t-70.5 -77t-72.5 -37.5t-68.5 -10q-48 0 -85 16 t-71 34.5t-69 34.5t-77 16z"/>
<glyph glyph-name="Acute" horiz-adv-x="652" unicode="" d="M161 1576l-69 99l249 242q22 22 50 37q27 14 55 18q8 1 16 0q19 0 37 -6q25 -9 42 -34q18 -26 18 -52.5t-11.5 -51t-32.5 -45t-46 -35.5z"/>
<glyph glyph-name="Caron" horiz-adv-x="1044" unicode="" d="M516 1576h-40l-384 310l57 84l370 -178l391 179l41 -82z"/>
<glyph glyph-name="Dieresis" horiz-adv-x="807" unicode="" d="M573 1632q-27 0 -49.5 11t-39 30.5t-25.5 46t-9 57.5q0 34 11.5 64t31 52.5t45.5 36t54 13.5q27 0 49.5 -11.5t38.5 -31t24.5 -46t8.5 -56.5q0 -33 -11 -63.5t-30 -53t-44.5 -36t-54.5 -13.5zM216 1632q-27 0 -49.5 11t-39 30.5t-25.5 46t-9 57.5q0 34 11.5 64t31 52.5 t45.5 36t54 13.5q27 0 49.5 -11.5t38.5 -31t24.5 -46t8.5 -56.5q0 -33 -11 -63t-30 -53t-44.5 -36.5t-54.5 -13.5z"/>
<glyph glyph-name="Grave" horiz-adv-x="630" unicode="" d="M171 1748q-24 15 -43 36q-18 20 -28 44q-7 19 -8 39q0 7 1 13q3 26 24 52q20 25 46 34q18 6 36 6q8 0 17 -1q27 -4 53 -18.5t46 -36.5l223 -239l-79 -101z"/>
</font>
</defs>
</svg>
