<?xml version="1.0" encoding="UTF-8" standalone="no"?>
<!DOCTYPE svg  PUBLIC '-//W3C//DTD SVG 1.1//EN'  'http://www.w3.org/Graphics/SVG/1.1/DTD/svg11.dtd'>
<svg xmlns="http://www.w3.org/2000/svg">
<defs>
<font id="Lora-Regular" horiz-adv-x="1626">
<font-face underline-position="-103" font-weight="400" descent="-410" panose-1="2 0 5 3 0 0 0 2 0 4" units-per-em="2048" unicode-range="U+0020-F6CE" bbox="-180 -556 2576 1917" x-height="1024" underline-thickness="102" font-family="Lora" ascent="1638" cap-height="1434"/>
<missing-glyph horiz-adv-x="2048"/>
<glyph glyph-name=".notdef" horiz-adv-x="2048"/>
<glyph glyph-name=".null" horiz-adv-x="2048"/>
<glyph glyph-name="nonmarkingreturn" horiz-adv-x="0"/>
<glyph glyph-name="space" horiz-adv-x="539" unicode=" "/>
<glyph glyph-name="exclam" horiz-adv-x="545" unicode="!" d="M309 471h-76l-80 845q-2 27 4.5 54t21.5 48.5t38 35t55 13.5q33 0 56 -13.5t37.5 -35t20 -48.5t3.5 -54zM391 98q0 -27 -10 -51t-27 -42t-38.5 -28t-45.5 -10t-45.5 10t-38 28t-26 42t-9.5 51q0 28 10 52.5t26.5 42.5t38.5 28.5t46 10.5q25 0 47 -10.5t38 -28.5t25 -42.5 t9 -52.5z"/>
<glyph glyph-name="quotedbl" horiz-adv-x="709" unicode='&quot;' d="M144.376 1006l-17.7471 461h160.662l-16.8145 -461h-126.101zM437.376 1006l-17.7471 461h160.662l-16.8145 -461h-126.101z"/>
<glyph glyph-name="numbersign" horiz-adv-x="1700" unicode="#" d="M579 487h430l112 474h-434zM315 -33l93 398h-340l33 122h335l112 474h-345l33 122h341l91 384h135l-88 -384h435l91 384h135l-88 -384h343v-2l-31 -120h-340l-107 -474h342l-32 -122h-337l-90 -398h-148l93 398h-429l-90 -398h-147z"/>
<glyph glyph-name="dollar" horiz-adv-x="1083" unicode="$" d="M227 -27h-110v433h71q6 -95 34.5 -162.5t77 -111t115.5 -64t148 -20.5q60 0 110 19t86 52.5t56 80.5t20 103q0 71 -31.5 124t-83 95.5t-117.5 78t-134.5 71.5t-134.5 76t-117.5 91t-83 117t-31.5 154q0 32 9 70.5t28 77.5t49.5 76t73.5 66t99.5 47t127.5 20v239h111 l-2 -240q58 -6 115 -25t112 -61l-8 87h102v-448h-75q-5 74 -22.5 141t-55 117.5t-98 80.5t-150.5 30q-65 0 -112 -21t-77.5 -54.5t-45.5 -77t-15 -88.5q0 -67 32 -118t84 -92.5t118.5 -77.5t135.5 -72.5t135.5 -77t118.5 -92t84 -117.5t32 -152q0 -72 -24.5 -137.5 t-74.5 -117.5t-125 -85.5t-175 -40.5l-1 -280h-106l-2 280q-36 1 -74 8.5t-75 19.5t-71.5 27.5t-62.5 33.5z"/>
<glyph glyph-name="percent" horiz-adv-x="1782" unicode="%" d="M1710 364q0 -71 -24 -141.5t-71 -127t-116 -92t-159 -36.5h-11q-88 0 -157.5 31.5t-116.5 85.5t-70.5 122.5t-23.5 139.5q0 79 30 151.5t81.5 128t120.5 88.5t147 33q91 0 160.5 -32t116 -85.5t70 -122.5t23.5 -143zM1534 331q0 33 -3.5 70.5t-12.5 75t-24 72t-37 61 t-53 42t-71 15.5q-56 0 -93 -27t-59.5 -69t-32 -93t-9.5 -99q0 -52 10 -111t34 -109.5t63 -84t96 -33.5q58 0 95 30.5t58.5 75.5t30 95t8.5 89zM74 1070q0 72 24 142t71.5 126.5t116.5 91.5t159 37h11q88 0 157 -31.5t115.5 -85t69.5 -122.5t23 -139q0 -79 -29.5 -152 t-80.5 -128.5t-119.5 -88.5t-146.5 -33q-92 0 -161 32t-116 85.5t-70.5 122.5t-23.5 143zM1500 1385l-1162 -1420l-87 72l1156 1430zM250 1103q0 -49 8.5 -107.5t31 -109.5t61.5 -85t100 -34q56 0 93 27.5t59.5 69.5t32 93t9.5 99q0 51 -9.5 110.5t-32 110t-61 84 t-95.5 33.5q-58 0 -96 -31t-60.5 -75.5t-31.5 -95t-9 -89.5z"/>
<glyph glyph-name="ampersand" horiz-adv-x="1423" unicode="&amp;" d="M412 1161q0 -44 12.5 -87.5t35 -86t53 -84.5t66.5 -81q115 75 170 168t55 183q0 49 -13 91t-37.5 72t-61 47t-83.5 17q-42 0 -78.5 -15.5t-62.5 -46t-41 -75t-15 -102.5zM871 283q-139 135 -244 238.5t-179 188.5q-49 -29 -81.5 -69.5t-52 -83.5t-27.5 -84.5t-8 -72.5 q0 -84 26 -145.5t68 -101.5t96 -60.5t111 -22.5q13 -1 26 -1q49 0 96.5 10.5t90.5 32t76.5 51.5t59.5 65q-29 25 -58 55zM1121 547v-16q0 -36 -8 -89.5t-34 -119.5q23 -21 48.5 -44t54.5 -49q93 -83 159.5 -122t98.5 -39v-68h-190q-20 0 -84.5 38.5t-170.5 130.5 q-33 -42 -75.5 -79t-97 -64t-121 -43t-147.5 -16q-89 0 -175.5 22t-154 70t-109 124.5t-41.5 185.5q0 66 22.5 124.5t64.5 109.5t101.5 93.5t133.5 74.5q-41 51 -71 97.5t-49 92t-27.5 91t-8.5 93.5q1 73 29.5 132.5t78.5 101.5t119.5 65t151.5 23q78 0 141 -22t107.5 -61 t69 -91.5t24.5 -112.5q0 -57 -18 -110t-58 -103.5t-104 -99t-157 -95.5q39 -42 81 -85t84 -87q21 -23 42.5 -44.5t46.5 -46t55.5 -53.5t70.5 -66q10 36 14.5 69t4.5 61q0 35 -7 70.5t-24.5 65t-47.5 48.5t-75 21v68h358v-84l-170 7q32 -28 47 -70t17 -99z"/>
<glyph glyph-name="quotesingle" horiz-adv-x="426" unicode="&apos;" d="M146 1006l-19 461h172l-18 -461h-135z"/>
<glyph glyph-name="parenleft" horiz-adv-x="625" unicode="(" d="M280 489q0 -289 75.5 -538t233.5 -459l-51 -47q-51 47 -105 110.5t-105.5 141.5t-98 169t-81 191.5t-55 209t-20.5 222.5t20.5 224t55 213.5t81 197t98 174t105.5 146.5t105 112l51 -47q-159 -212 -234 -470.5t-75 -549.5z"/>
<glyph glyph-name="parenright" horiz-adv-x="625" unicode=")" d="M346 512q0 289 -75.5 538t-233.5 459l51 47q51 -47 105 -110.5t105.5 -141.5t98 -169t81 -191.5t55 -209t20.5 -222.5t-20.5 -224t-55 -213.5t-81 -197t-98 -174t-105.5 -146.5t-105 -112l-51 47q159 212 234 470.5t75 549.5z"/>
<glyph glyph-name="asterisk" horiz-adv-x="1065" unicode="*" d="M559 1041q54 34 119 66t128 63q22 11 48 18t50 6t43 -12.5t27 -37.5q5 -15 5 -28q0 -12 -5.5 -25t-23 -27.5t-42.5 -23.5t-50 -15q-33 -6 -69 -13t-72 -12.5t-71.5 -10t-66.5 -5.5q50 -40 101.5 -91t99.5 -102q19 -20 32.5 -42t19 -40t5.5 -31q0 -15 -6 -30t-25 -29 q-20 -15 -39 -15q-2 0 -13.5 1t-30 13.5t-35 33t-29.5 41.5q-16 30 -34 63t-35 66t-32 65.5t-26 61.5q-12 -29 -27 -61.5t-32 -65.5t-34.5 -66t-33.5 -63q-12 -21 -28 -41.5t-35 -33t-30.5 -13.5t-13.5 -1q-20 0 -41 15q-18 15 -23.5 28.5t-5.5 30.5q0 12 5 30.5t19 41.5 t30 41q48 51 99 103t102 90q-32 1 -67.5 5.5t-72 10t-72.5 12.5t-69 13q-24 5 -49 14t-43 23.5t-24 29t-6 25.5q0 13 5 27q9 27 28 38.5t42.5 12t49 -6.5t48.5 -18q63 -29 129.5 -61.5t118.5 -67.5q-18 60 -28.5 134t-18.5 143q-3 24 -2 50.5t9.5 48.5t25 36t45.5 14 q28 0 44.5 -14t24 -36t8 -48.5t-2.5 -50.5q-8 -69 -18.5 -143t-28.5 -134z"/>
<glyph glyph-name="plus" horiz-adv-x="1055" unicode="+" d="M72 711l389 -2v403h132v-403l391 -2v-115l-391 -2v-422h-132v421l-389 -1v123z"/>
<glyph glyph-name="comma" horiz-adv-x="518" unicode="," d="M186 -325q17 21 36 57t33.5 80t22.5 92q5 28 5 55q0 20 -3 41q-29 -13 -55.5 -11t-46.5 15t-31.5 35t-11.5 49q0 57 33 88t80 31q35 0 62 -14.5t45.5 -39.5t28 -59t9.5 -73t-11 -91.5t-31 -106.5t-48 -104.5t-62 -84.5z"/>
<glyph glyph-name="hyphen" horiz-adv-x="1001" unicode="-" d="M137 727h727v-135l-727 -8v143z"/>
<glyph glyph-name="period" horiz-adv-x="504" unicode="." d="M370 98q0 -27 -10 -51t-26.5 -42t-38 -28t-45.5 -10t-45.5 10t-38 28t-26 42t-9.5 51q0 28 10 52.5t26.5 42.5t38.5 28.5t46 10.5q25 0 46.5 -10.5t37.5 -28.5t25 -42.5t9 -52.5z"/>
<glyph glyph-name="slash" horiz-adv-x="1413" unicode="/" d="M1372 1473l-1210 -2029l-119 75l1197 2037z"/>
<glyph glyph-name="zero" horiz-adv-x="1272" unicode="0" d="M115 711q0 86 13 175.5t40 173.5t69.5 158t101.5 129.5t135.5 87.5t171.5 32q99 0 175.5 -31.5t133.5 -86t96 -127.5t63 -155.5t34.5 -171.5t10.5 -174t-12 -174t-38.5 -172.5t-67.5 -158t-99 -130t-134 -87.5t-171 -32q-104 0 -183.5 31.5t-137.5 85.5t-96.5 126.5 t-62 155.5t-33 171t-9.5 174zM326 753q0 -71 5.5 -151t19.5 -158.5t37.5 -150.5t59.5 -126.5t85.5 -87t115.5 -32.5q58 0 103 26t78.5 70.5t56 105.5t36 131t19.5 146t6 151q0 83 -6 168t-20 164t-37 148.5t-57 121t-80.5 81t-106.5 29.5q-59 0 -105.5 -26t-81.5 -71 t-59 -106.5t-39.5 -132t-22.5 -147.5t-7 -153z"/>
<glyph glyph-name="one" horiz-adv-x="745" unicode="1" d="M508 223q0 -40 -0.5 -76t-5.5 -65l172 8v-90h-522v68q53 2 87.5 19t54.5 47t28 72t8 95l-2 967h-4l-246 -159l-41 60l400 298h69z"/>
<glyph glyph-name="two" horiz-adv-x="1100" unicode="2" d="M260 1242q20 -22 28.5 -45.5t8.5 -46.5q0 -13 -5 -30t-17 -31.5t-31 -24.5t-47 -9q-46 2 -70 34.5t-24 78.5q0 43 27 95.5t81 97.5t134 75.5t186 30.5q81 0 158.5 -19t138 -62.5t97 -115t36.5 -175.5q0 -52 -22 -111t-70 -127t-124.5 -145.5t-185.5 -167.5 q-70 -57 -128 -112t-101 -104.5t-69.5 -93t-33.5 -79.5l363 -10q75 -2 107.5 -2.5t34.5 -0.5q59 0 104 12t70.5 42.5t25.5 90.5h62l-13 -287h-887q0 108 34.5 192t91 155.5t129 137.5t149.5 139q133 127 192.5 236t59.5 210q0 57 -11.5 113.5t-40.5 102t-77.5 73.5 t-122.5 28q-42 0 -80.5 -11.5t-70 -31t-54 -46t-33.5 -56.5z"/>
<glyph glyph-name="three" horiz-adv-x="1141" unicode="3" d="M275 1239q18 -20 25.5 -41.5t7.5 -42.5q0 -12 -5 -28t-16 -29.5t-29 -23t-44 -8.5q-44 2 -66.5 32.5t-22.5 73.5q0 42 25.5 93.5t77.5 96.5t130.5 75t184.5 30q82 0 156.5 -19.5t131.5 -62t91 -110t34 -164.5q0 -49 -17 -97.5t-56 -93.5t-103.5 -83.5t-158.5 -67.5v-2 q97 -10 174.5 -42t131.5 -82.5t83 -117.5t29 -146q0 -104 -43 -181.5t-114.5 -128.5t-165 -76.5t-193.5 -25.5q-111 0 -192.5 26.5t-135 67.5t-79.5 90.5t-26 94.5q0 46 24 78.5t70 34.5q28 1 46.5 -8t29.5 -23t15.5 -31t4.5 -31q0 -21 -6.5 -41.5t-15.5 -40.5 q10 -35 34.5 -59.5t58.5 -40t74 -23t82 -7.5q73 0 132.5 20t101.5 59.5t64.5 97.5t22.5 134q0 67 -14.5 131t-55 113t-109 77t-171.5 28h-14q-34 0 -74 -3v92h84q81 0 135 29.5t87 73.5t47 94.5t14 92.5q0 63 -11.5 117t-39.5 93t-74.5 61.5t-116.5 22.5q-46 0 -86.5 -13.5 t-72 -35t-52.5 -48t-29 -51.5z"/>
<glyph glyph-name="four" horiz-adv-x="1110" unicode="4" d="M160 528l488 -6v653h-4zM834 223q0 -42 -1 -78t-7 -67l158 6v-84h-516v68h16q52 4 84 23.5t50 53t24 79.5t6 102v69h-623v101l740 971h69v-949l207 -2v-121h-207v-172z"/>
<glyph glyph-name="five" horiz-adv-x="1114" unicode="5" d="M274 187q6 -38 33 -65.5t64 -44.5t74.5 -23.5t67.5 -6.5h15q75 3 128.5 33t88 78t50.5 109t16 126q0 38 -3.5 83t-14.5 90t-32.5 86.5t-56.5 74t-86.5 51.5t-123.5 19q-26 0 -62 -5t-73.5 -14t-73.5 -22.5t-62 -30.5l-57 53l-5 656h532q58 0 97 8t62.5 24t33.5 41t10 60 h57l-12 -271l-686 -14l1 -450q50 20 128 38.5t169 18.5q126 0 215.5 -40.5t146 -106t83 -147.5t26.5 -165q0 -114 -41.5 -200.5t-111 -145t-160.5 -88t-191 -29.5q-98 0 -175 26.5t-130 67.5t-81 90.5t-28 94.5q0 46 24 78.5t70 34.5q28 1 46.5 -8t29.5 -23t15.5 -31 t4.5 -31q0 -20 -6 -41t-16 -38z"/>
<glyph glyph-name="six" horiz-adv-x="1184" unicode="6" d="M879 1271q-6 18 -22.5 39t-42.5 39t-61 29.5t-77 11.5q-78 0 -135.5 -36t-98 -94t-66 -131t-40.5 -147t-21.5 -142.5t-7.5 -117.5q25 34 59.5 65.5t78 55.5t95 38t111.5 14q123 0 206 -42.5t133.5 -109.5t72 -148t21.5 -159q0 -96 -36.5 -181.5t-100.5 -149t-152 -101 t-191 -37.5q-137 0 -230 49.5t-151 141.5t-83 222.5t-25 293.5q0 61 9 143.5t32 170.5t62.5 174t101.5 153.5t148.5 109.5t203.5 42q91 0 159 -26.5t113 -65.5t67.5 -84.5t22.5 -83.5q0 -44 -21.5 -74.5t-65.5 -32.5q-26 -1 -44 7t-29 21t-16 28.5t-5 28.5q0 20 6.5 43 t19.5 43zM608 803q-48 0 -95 -18.5t-87.5 -50t-71 -72.5t-45.5 -85q5 -97 22.5 -192t52 -170t89 -121.5t135.5 -46.5q72 0 123.5 28.5t83.5 76t47 109.5t15 130q0 38 -4 83.5t-14.5 91.5t-29.5 88.5t-49 75.5t-72.5 53t-99.5 20z"/>
<glyph glyph-name="seven" horiz-adv-x="944" unicode="7" d="M400 -33q-41 3 -56.5 28.5t-15.5 62.5q0 33 14.5 83.5t35.5 107.5t45 116t44 110q28 72 66.5 169t82.5 206t93 223t100 220l-541 -3q-83 -1 -128.5 -38.5t-45.5 -121.5h-49v304h858v-140q-50 -102 -89.5 -197t-73 -188t-62.5 -187t-56 -193.5t-53.5 -207.5t-56.5 -228 q-6 -25 -15.5 -48.5t-22.5 -41t-30 -27t-36 -9.5h-8z"/>
<glyph glyph-name="eight" horiz-adv-x="1151" unicode="8" d="M340 1140q0 -56 22.5 -104.5t62 -89.5t93.5 -73t116 -54q92 63 140 139.5t50 154.5v8q0 126 -63.5 195t-172.5 71h-6q-58 0 -102.5 -20.5t-76 -55t-47.5 -79t-16 -92.5zM509 690q-56 -41 -96 -85.5t-66 -90t-39 -89t-15 -81.5q-1 -12 -1 -23q0 -52 17 -101t53 -88 t89 -60.5t118 -22.5h8q127 0 199 66t72 187q0 53 -17.5 105.5t-57 102t-104.5 95t-160 85.5zM984 1136q0 -61 -22 -114t-60 -98t-88 -81.5t-107 -64.5q68 -40 130 -89t109 -104.5t75 -117.5t28 -128q0 -97 -40 -167t-107 -115.5t-154.5 -67.5t-182.5 -22q-72 0 -150 17 t-143.5 56.5t-108 104.5t-42.5 162q0 69 26 129.5t69.5 112.5t99.5 96.5t116 82.5q-78 46 -132 92.5t-87.5 92.5t-48.5 91.5t-15 90.5q0 97 39 167t101 115.5t139.5 67.5t155.5 22t150 -22t127.5 -64t89 -103.5t33.5 -141.5z"/>
<glyph glyph-name="nine" horiz-adv-x="1184" unicode="9" d="M308 155q7 -22 22 -42t40 -35t61 -24t85 -9q78 0 134.5 33t96 87t64 123.5t38 143.5t17.5 139t4 115v22q-26 -34 -60 -65t-77 -54.5t-95 -37.5t-112 -14q-82 0 -145.5 19.5t-111 53t-80 78.5t-53 95.5t-29.5 104t-9 105.5q0 100 34 186.5t97 150.5t152.5 100.5 t200.5 36.5q144 0 237.5 -56t147.5 -154.5t75 -232.5t21 -289q0 -75 -7.5 -160.5t-28 -170.5t-58 -164t-97 -139t-144.5 -96.5t-202 -37.5h-8q-96 0 -165 24t-113.5 61.5t-65 82t-20.5 85.5q0 44 22.5 74.5t66.5 32.5q25 1 42.5 -7.5t28.5 -22t16 -29.5t5 -29q0 -42 -27 -84 zM569 629q48 0 95.5 18.5t88 49.5t71 71.5t44.5 85.5q-5 96 -21.5 191.5t-51 171.5t-90 123.5t-138.5 47.5q-66 0 -116 -29t-83 -78t-50 -112t-17 -131q0 -38 4 -83.5t14.5 -90.5t29.5 -87.5t49 -75.5t72 -52.5t99 -19.5z"/>
<glyph glyph-name="colon" horiz-adv-x="512" unicode=":" d="M376 923q0 -27 -10 -51t-26.5 -42t-38 -28t-45.5 -10t-45.5 10t-38 28t-26 42t-9.5 51q0 28 10 52.5t26.5 42.5t38.5 28.5t46 10.5q25 0 46.5 -10.5t37.5 -28.5t25 -42.5t9 -52.5zM376 98q0 -27 -10 -51t-26.5 -42t-38 -28t-45.5 -10t-45.5 10t-38 28t-26 42t-9.5 51 q0 28 10 52.5t26.5 42.5t38.5 28.5t46 10.5q25 0 46.5 -10.5t37.5 -28.5t25 -42.5t9 -52.5z"/>
<glyph glyph-name="semicolon" horiz-adv-x="539" unicode=";" d="M382 923q0 -27 -10 -51t-26.5 -42t-38 -28t-45.5 -10t-45.5 10t-38 28t-26 42t-9.5 51q0 28 10 52.5t26.5 42.5t38.5 28.5t46 10.5q25 0 46.5 -10.5t37.5 -28.5t25 -42.5t9 -52.5zM194 -325q17 21 36 57t33.5 80t21 82t6.5 65q0 20 -3 41q-29 -13 -55.5 -11t-46.5 15 t-31.5 35t-11.5 49q0 57 33 88t80 31q35 0 62 -14.5t45.5 -39.5t28 -59t9.5 -73t-11 -91.5t-31 -106.5t-48 -104.5t-62 -84.5z"/>
<glyph glyph-name="less" horiz-adv-x="1110" unicode="&lt;" d="M70 709l912 405v-127l-773 -340l773 -342v-131l-912 397v138z"/>
<glyph glyph-name="equal" horiz-adv-x="1212" unicode="=" d="M150 895l912 -4v-119l-912 -4v127zM150 510l912 -4v-119l-912 -4v127z"/>
<glyph glyph-name="greater" horiz-adv-x="1108" unicode="&gt;" d="M1039 579.043l-911.944 -404.975v126.992l772.953 339.979l-772.953 341.979v130.992l911.944 -396.976v-137.992z"/>
<glyph glyph-name="question" horiz-adv-x="971" unicode="?" d="M585 88q0 -25 -8 -47t-22.5 -38.5t-34.5 -26t-44 -9.5q-21 0 -41 8t-35.5 24t-25 38t-9.5 51q0 25 9.5 47t25 38.5t35.5 26t41 9.5q23 0 43 -9.5t34.5 -26t23 -38.5t8.5 -47zM226 1242q11 -18 17 -38t6 -42q0 -13 -5.5 -29t-16.5 -29.5t-29 -22t-43 -7.5 q-44 2 -65.5 32.5t-21.5 74.5q0 45 28.5 95.5t82 92.5t130 70t173.5 28q118 0 199 -32t129 -83t68 -115q16 -53 17 -106q0 -11 -1 -22q-4 -69 -39.5 -128t-86.5 -110t-109 -95.5t-107.5 -83.5t-82 -75t-32.5 -70q0 -12 4.5 -24.5t14.5 -22t26.5 -15.5t40.5 -6q14 0 35.5 3.5 t40.5 11.5l24 -72q-32 -19 -77.5 -28t-83.5 -9q-30 0 -59.5 7.5t-52.5 23.5t-37.5 42t-14.5 64q0 46 29 86.5t73 80t95.5 82t96.5 93t75.5 112t33.5 139.5v9q-1 50 -11 96q-12 50 -40.5 87t-77.5 58.5t-121 21.5q-44 0 -83.5 -13.5t-69.5 -35t-49 -47t-23 -49.5z"/>
<glyph glyph-name="at" horiz-adv-x="1630" unicode="@" d="M1544 651q0 -107 -22.5 -189t-58.5 -141.5t-82.5 -98t-103.5 -64.5t-128 -26q-33 0 -73.5 12t-69.5 43.5t-37.5 68.5t-8.5 76q0 32 4.5 69.5t15.5 96.5h-4q-38 -117 -78.5 -187t-81.5 -107.5t-79.5 -49t-71.5 -11.5q-43 0 -82.5 16.5t-69.5 51t-47.5 88.5t-17.5 129 q0 112 31 213.5t92 178t151 122t207 45.5q24 0 52 -1.5t57.5 -4.5t58 -8t53.5 -12q-8 -70 -17.5 -141.5t-17.5 -139.5t-15 -129.5t-10.5 -101.5t-3.5 -80q0 -42 8 -78t22.5 -55.5t33.5 -26.5t35 -7q38 0 71.5 20.5t65.5 66t54.5 124t22.5 173.5q0 184 -44.5 303.5 t-118 190.5t-167 105t-216.5 34h-7h-6q-49 0 -124 -15t-160 -65t-154 -142t-105.5 -210.5t-36.5 -247.5q0 -111 22.5 -201.5t63 -161.5t96.5 -123.5t122 -87t144 -53t145 -18.5q90 0 132 5t109.5 24t129 58t115.5 103l49 -51q-119 -127 -258 -177.5t-274 -50.5 q-142 0 -239 24t-180.5 71.5t-146.5 114t-104.5 147.5t-62.5 173.5t-21 190.5q0 86 19 175t57 173t96.5 159t138 133t169 90t159 40t115.5 8q102 0 192 -20t171 -65.5t142 -109t101.5 -138t61 -156.5t20.5 -164zM1005 907q-48 19 -127 19q-72 0 -126 -44.5t-89.5 -114.5 t-53.5 -155t-18 -166q0 -103 28 -164t81 -61q37 0 73.5 31t70.5 83.5t63 121.5t50.5 145t34 154.5t13.5 150.5z"/>
<glyph glyph-name="A" horiz-adv-x="1282" unicode="A" d="M510 942q-47 -132 -82.5 -232.5t-63.5 -179.5h474l-146 392l-92 252h-4zM262 223q-8 -24 -14 -43t-12 -35t-12 -31t-13 -32l160 8v-90h-383v68q46 0 75 18.5t49 52.5t36.5 81t37.5 104l422 1149h49l457 -1166q9 -21 18.5 -50.5t18 -60.5t13 -61t3.5 -53l140 8v-90h-469 v68q57 1 84 21t34 49t0 62t-18 62l-72 192l-533 -12q-22 -63 -39 -115.5t-32 -103.5z"/>
<glyph glyph-name="B" horiz-adv-x="1274" unicode="B" d="M426 82q24 -2 57 -3t65.5 -1h58.5h36q79 0 144 20t111.5 59t72 97t25.5 135q0 94 -29 156t-77.5 99t-112.5 52t-134 15q-61 0 -111 -1.5t-99 -4.5v-463q0 -56 -1.5 -95t-5.5 -65zM586 1364q-50 0 -80 -10t-46.5 -33.5t-21.5 -61.5t-5 -94v-381l149 4q88 2 147.5 29 t95.5 70.5t51 95.5t15 115q0 78 -30 134t-74 83.5t-97 38t-104 10.5zM254 1190q0 56 1.5 96t5.5 66l-148 -9v91q113 2 226 3t237 1q119 0 213 -21t158.5 -64t97.5 -106t33 -160q-1 -50 -22 -100t-63 -93t-105.5 -76t-147.5 -48v-4q113 0 198 -27.5t142 -76t85.5 -115.5 t28.5 -146q0 -94 -36.5 -168.5t-101 -126t-153 -79t-192.5 -27.5h-598v68q58 1 87 20.5t41 54t12.5 82t0.5 105.5v860z"/>
<glyph glyph-name="C" horiz-adv-x="1432" unicode="C" d="M819 1383q-109 0 -204.5 -46.5t-166.5 -132t-112 -207.5t-41 -272q0 -97 19.5 -182.5t55.5 -158t86 -130t111 -97.5t131 -61.5t146 -21.5q67 0 133.5 15t128 45t115.5 74t96 101l53 -43q-66 -91 -141.5 -149t-152 -91.5t-150 -46t-136.5 -12.5q-154 0 -282 56.5 t-220 154.5t-143 230.5t-51 285.5q0 96 19.5 191t59 180.5t98.5 159t138 127.5t178 84.5t218 30.5q116 0 217 -31t196 -94l-10 110h111v-475h-74q-11 96 -45.5 171.5t-89 127.5t-128.5 79.5t-163 27.5z"/>
<glyph glyph-name="D" horiz-adv-x="1526" unicode="D" d="M596 1436q186 0 339.5 -43t264 -132t171.5 -225t61 -321q0 -94 -22 -183.5t-66 -169t-109.5 -146t-152 -114.5t-194.5 -75t-236 -27h-539v68q58 2 87 21t41 52t12.5 78.5t0.5 99.5v885q0 42 1.5 79.5t5.5 68.5l-148 -9v91zM433 242q0 -56 -1.5 -95t-5.5 -65q41 -2 78 -3 t66.5 -1h49.5h26q132 0 240 49t184.5 135.5t118.5 204.5t42 256q0 145 -39.5 262.5t-120.5 201t-204.5 128.5t-292.5 45q-58 0 -87 -18t-41 -50.5t-12.5 -77.5t-0.5 -100v-872z"/>
<glyph glyph-name="E" horiz-adv-x="1274" unicode="E" d="M433 236q0 -57 -1.5 -95.5t-5.5 -64.5l392 6q67 1 121 16.5t92.5 52t59.5 97t21 151.5h70l-12 -399h-1057v68q49 1 77.5 15.5t42.5 39.5t17.5 59.5t3.5 76.5v60v885q0 42 1.5 79.5t5.5 68.5l-148 -9v91h985l10 -359h-67q0 88 -20.5 144t-56 88t-83.5 43.5t-104 11.5 l-189 -3q-57 -3 -88.5 -18t-46.5 -44.5t-17.5 -74.5t-2.5 -108v-330h384l-15 177h91v-431h-67q0 60 -10.5 95.5t-33 55t-57 25.5t-83.5 6h-29t-180 -7v-469z"/>
<glyph glyph-name="F" horiz-adv-x="1122" unicode="F" d="M433 244q0 -56 -1.5 -96t-5.5 -66l209 8v-90h-522v68q58 2 87 21t41 52t12.5 78.5t0.5 99.5v885q0 42 1.5 79.5t5.5 68.5l-148 -9v91h950l11 -359h-68q0 91 -22.5 147.5t-61 88t-88 41.5t-101.5 10h-10l-149 -4q-57 -2 -86.5 -21.5t-41.5 -53t-12.5 -79t-0.5 -98.5v-354 h356l-15 177h91v-431h-67q0 60 -10.5 95.5t-33 55t-57 25.5t-83.5 6h-29t-152 -7v-429z"/>
<glyph glyph-name="G" horiz-adv-x="1559" unicode="G" d="M1368 74h-56q-34 0 -90 -12t-131 -41q-32 -12 -70 -22t-77.5 -17t-78.5 -11t-73 -4q-154 0 -282 49.5t-220 142t-143 226t-51 301.5q0 96 19.5 191.5t59 182t98.5 161t138.5 129.5t179 86t218.5 31q55 0 112 -8t112 -22.5t106 -35.5t94 -47l-9 98h113v-469h-74 q-7 96 -43 171t-94.5 126t-136 78t-166.5 27q-109 0 -205 -48.5t-167 -135t-112.5 -206t-41.5 -262.5q0 -145 40 -267.5t112.5 -211t173.5 -138.5t222 -50q41 0 86 6t90.5 18t90 31.5t84.5 46.5v448l-144 -8v90h463v-67q-38 0 -64 -14.5t-42 -37t-24.5 -50t-12 -54.5 t-4 -50.5t-0.5 -37.5v-313z"/>
<glyph glyph-name="H" horiz-adv-x="1597" unicode="H" d="M1166 693l-733 -9v-440q0 -56 -1.5 -96t-5.5 -66l148 8v-90h-461v68q58 2 87 21t41 52t12.5 78.5t0.5 99.5v885q0 42 1.5 79.5t5.5 68.5l-148 -9v91h461v-68q-58 -2 -87 -21.5t-41 -52.5t-12.5 -78t-0.5 -100v-340h733v430q0 86 6 148l-148 -9v91h461v-68 q-57 -2 -86.5 -21.5t-41.5 -52.5t-12.5 -78t-0.5 -100v-870q0 -110 -6 -162l147 8v-90h-461v68q58 2 87.5 21t41.5 52t12.5 78.5t0.5 99.5v374z"/>
<glyph glyph-name="I" horiz-adv-x="686" unicode="I" d="M254 1204q0 42 1.5 79.5t5.5 68.5l-148 -9v91h461v-68q-58 -2 -87 -21.5t-41 -52.5t-12.5 -78t-0.5 -100v-870q0 -56 -1.5 -96t-5.5 -66l148 8v-90h-461v68q58 2 87 21t41 52t12.5 78.5t0.5 99.5v885z"/>
<glyph glyph-name="J" horiz-adv-x="764" unicode="J" d="M165 83q6 -9 16.5 -15.5t22.5 -10.5t23 -5t19 -1q30 1 53 14t38 41t22.5 72t7.5 107v1067l-209 -9v91h545v-68q-51 0 -82 -15.5t-48 -43t-22.5 -64.5t-5.5 -80v-663q0 -144 -19 -245.5t-59 -165.5t-103.5 -93t-151.5 -29q-43 0 -82 10t-69 29t-47.5 46t-17.5 61 q0 20 5.5 38.5t16.5 33.5t24 22.5t24 10t26 2.5q18 0 35 -8t27.5 -21.5t15.5 -30t5 -31.5q0 -10 -2.5 -22.5t-7.5 -23.5z"/>
<glyph glyph-name="K" horiz-adv-x="1364" unicode="K" d="M254 1204q0 42 1.5 79.5t5.5 68.5l-148 -9v91h461v-68q-58 -2 -87 -21.5t-41 -52.5t-12.5 -78t-0.5 -100v-336h153l256 404q13 20 29.5 43t35 46t39.5 44.5t42 38.5l-125 -4v84h440v-68q-65 -5 -118 -17.5t-101 -42t-95.5 -81t-99.5 -135.5l-200 -320q29 -18 52 -38.5 t43 -42.5t38 -45.5t37 -47.5l229 -305q58 -78 100 -122.5t76 -67t63 -28t62 -5.5v-68h-250q-15 0 -38 16.5t-50.5 44.5t-58 64.5t-60.5 75.5l-245 331q-39 51 -78 97t-76 69l-100 -2v-452q0 -56 -1.5 -96t-5.5 -66l148 8v-90h-461v68q58 2 87 21t41 52t12.5 78.5t0.5 99.5 v885z"/>
<glyph glyph-name="L" horiz-adv-x="1184" unicode="L" d="M433 236q0 -56 -1.5 -95t-5.5 -65l383 6q64 1 113.5 20.5t82.5 60.5t50 105.5t17 155.5h69l-12 -424h-1016v68q58 2 87 21t41 52t12.5 78.5t0.5 99.5v885q0 42 1.5 79.5t5.5 68.5l-148 -9v91h461v-68q-58 -2 -87 -21.5t-41 -52.5t-12.5 -78t-0.5 -100v-878z"/>
<glyph glyph-name="M" horiz-adv-x="1880" unicode="M" d="M129 1434h313q71 -161 135.5 -310t126.5 -293.5t123.5 -288t126.5 -292.5h4q12 28 25.5 62t27.5 70t27.5 70t24.5 62q89 224 186.5 451t192.5 469h303v-68h-6q-35 0 -62 -11t-45 -37t-24 -61.5t-6 -72.5q0 -19 1 -41l54 -932q2 -36 3 -68.5t1 -59.5l149 7v-90h-459v68 q48 1 76 17.5t42.5 47.5t16.5 64.5t2 58.5q0 26 -1 55l-53 873q-6 -15 -13 -31.5t-14 -34.5l-461 -1138h-61q-67 150 -135 300t-134.5 302t-131 306.5t-124.5 313.5l-2 -90q-2 -49 -3.5 -112.5t-4 -135.5t-4.5 -150t-4 -157t-4 -155.5t-3 -145.5q-1 -46 -2 -91t-6 -83l154 8 v-90h-391v68q48 1 75 16.5t41.5 41t18.5 59t6 71.5l45 1095l-147 -5v88z"/>
<glyph glyph-name="N" horiz-adv-x="1561" unicode="N" d="M1332 -33h-99l-889 1195h-3l7 -877q0 -53 -0.5 -103.5t-3.5 -99.5l148 8v-90h-375v68q47 0 74 16.5t40.5 40.5t17 52t3.5 52l2 1123l-137 -9v91h244l872 -1167h2l2 937q0 86 6 148l-147 -9v91h377v-68q-58 -2 -86.5 -21.5t-40.5 -52.5q-11 -32 -11 -74l1 -104z"/>
<glyph glyph-name="O" d="M94 717q0 86 19 175t58 172.5t98 156.5t138 128t179 86.5t221 31.5q125 0 227.5 -32t183.5 -86.5t140.5 -128t99 -157t59 -172.5t19.5 -174t-19.5 -173.5t-58 -172t-97.5 -157t-138.5 -128.5t-179 -87t-220.5 -32q-130 0 -234.5 31t-185.5 84.5t-139.5 126t-96 155.5 t-55.5 173.5t-18 179.5zM295 754q0 -76 14 -157.5t42.5 -159.5t72 -148.5t103 -123t134 -83.5t166.5 -31q84 0 154 25.5t126 70t98 105t70 130t42.5 148.5t14.5 148q0 74 -16 164t-47 168.5t-76 147t-104 119t-131.5 79.5t-157.5 29q-126 0 -221 -56t-158 -146t-94.5 -202.5 t-31.5 -226.5z" unicode="O"/>
<glyph glyph-name="P" horiz-adv-x="1240" unicode="P" d="M433 625q38 -5 66.5 -6t66.5 -1q87 0 164.5 26t135 75.5t91 120.5t33.5 161q0 97 -31 165t-87 110.5t-134 61.5t-172 19q-55 0 -82.5 -17.5t-39 -49.5t-11.5 -76.5v-99.5v-489zM506 539h-31.5t-41.5 1v-296q0 -56 -1.5 -96t-5.5 -66l189 10v-92h-502v68q58 2 87 21t41 52 t12.5 78.5t0.5 99.5v885q0 42 1.5 79.5t5.5 68.5l-148 -9v91q108 2 222 2.5t235 0.5q298 0 453 -100q166 -109 166 -319q0 -43 -9.5 -95t-38.5 -107.5t-79.5 -106t-127 -88t-182.5 -60t-246 -22.5z"/>
<glyph glyph-name="Q" horiz-adv-x="1630" unicode="Q" d="M295 754q0 -76 14 -157.5t42.5 -159.5t72 -148.5t103 -123t134 -83.5t166.5 -31q84 0 154 25.5t126 70t98 105t70 130t42.5 148.5t14.5 148q0 74 -16 164t-47 168.5t-76 147t-104 119t-131.5 79.5t-157.5 29q-126 0 -221 -56t-158 -146t-94.5 -202.5t-31.5 -226.5z M94 717q0 86 19 175t58 172.5t98 156.5t138 128t179 86.5t221 31.5q125 0 227.5 -32t183.5 -86.5t140.5 -128t99 -157t59 -172.5t19.5 -174t-19.5 -173.5t-58 -172t-97.5 -157t-138.5 -128.5t-179.5 -87q-26 -8 -53 -14q5 -1 9 -1q36 -1 68.5 -6t65.5 -18.5t69 -38.5t80 -66 q71 -66 120 -111t85 -72.5t64 -39t58 -11.5v-67h-65q-56 0 -99 2t-82 12.5t-78 33.5t-87 66q-69 62 -120 116.5t-94.5 95t-84.5 64t-90 23.5q-122 2 -221 31q-104 31 -185 84.5t-139.5 126t-96 155.5t-55.5 173.5t-18 179.5z"/>
<glyph glyph-name="R" horiz-adv-x="1286" unicode="R" d="M433 720q32 -2 53 -3t35 -1q18 0 39 1q84 3 153.5 21.5t120 57.5t78.5 100.5t28 150.5q0 154 -88.5 232.5t-277.5 78.5q-58 0 -87 -17.5t-41 -49.5t-12.5 -77t-0.5 -100v-394zM572 640q-27 -2 -55 -2q-7 0 -28 0.5t-56 3.5v-398q0 -56 -1.5 -96t-5.5 -66l148 8v-90h-461 v68q58 2 87 21t41 52t12.5 78.5t0.5 99.5v885q0 42 1.5 79.5t5.5 68.5l-148 -9v91q116 2 194 2.5t117 0.5q78 0 158 -1q148 -3 253.5 -28.5t173 -72.5t99 -114t31.5 -152q0 -60 -16 -122.5t-59 -118.5t-117.5 -100t-191.5 -68q40 -29 72 -74t70 -105l140 -219 q26 -41 50 -76.5t52.5 -61.5t64 -41t83.5 -15v-68h-258q-30 26 -54 52t-45.5 54t-41.5 57.5t-42 63.5l-137 219q-14 22 -29 47.5t-32 51.5t-36 50.5t-40 44.5z"/>
<glyph glyph-name="S" horiz-adv-x="1161" unicode="S" d="M237 -16h-106l-12 436h79q6 -91 39 -159.5t86.5 -114.5t124.5 -69.5t152 -23.5q60 0 113.5 16.5t94 49t64 80.5t23.5 110q0 75 -33 129t-87.5 95.5t-124 75t-141.5 67t-141.5 71t-124 87t-87.5 115.5t-33 157q0 35 8 75t26.5 80t49 77.5t76.5 66t109 45.5t146 17 q40 0 85 -5t91.5 -17t92.5 -32.5t88 -51.5l-8 88h104v-449h-74q-5 74 -28.5 143.5t-68.5 123t-111 86t-156 32.5q-64 0 -113 -19.5t-82 -52.5t-50 -76.5t-17 -91.5q0 -70 33.5 -121.5t88.5 -91.5t125 -73t143 -66.5t143 -72t125 -89t88.5 -117.5t33.5 -158q0 -85 -32 -156.5 t-93 -123t-150.5 -80.5t-203.5 -29q-46 0 -94.5 6.5t-96 19.5t-92 33t-82.5 46z"/>
<glyph glyph-name="T" horiz-adv-x="1311" unicode="T" d="M1186 1001q-2 91 -14 158.5t-42 112t-81 66.5t-130 22l-173 -1l-3 -1115q0 -110 -6 -162l170 8v-90h-481v68q57 2 86 22t41 53.5t12 78.5v97l3 1038l-212 -1q-65 0 -109.5 -21.5t-72.5 -65.5t-40.5 -110.5t-12.5 -157.5h-76l12 433h1194l12 -433h-77z"/>
<glyph glyph-name="U" horiz-adv-x="1540" unicode="U" d="M1332 639q-1 -134 -29.5 -255.5t-93 -214t-169.5 -147.5t-259 -55q-164 0 -275 43t-178.5 132.5t-96.5 227.5t-29 328v416q0 27 0.5 60t2 66t2.5 62.5t3 49.5l-147 -6v88h460v-68q-52 0 -80.5 -17.5t-42 -42.5t-16 -53t-2.5 -49v-516q0 -76 6 -150.5t22.5 -141.5t46 -124 t76.5 -99t114 -65.5t159 -23.5q111 0 190.5 40t131 112.5t76 172.5t26.5 220l8 575q0 86 6 148l-147 -9v91h381v-68q-58 -2 -87.5 -21.5t-41.5 -52.5t-12.5 -78t-0.5 -100z"/>
<glyph glyph-name="V" horiz-adv-x="1337" unicode="V" d="M-8 1434h475v-68l-2 -2q-51 -3 -81.5 -19t-40 -39t-9.5 -47q0 -12 4 -38.5t25 -77.5q24 -61 47 -118.5t46.5 -115.5t48 -118t52.5 -125q25 -58 49.5 -114t46 -107t40 -96t30.5 -79h4q273 770 319 902t70 180l-157 -9v91h415v-68q-45 -2 -79 -13t-60 -34.5t-47 -61 t-55.5 -134.5t-86 -239t-95 -261.5t-101.5 -278t-133 -364.5h-57l-465 1089q-23 52 -38 93.5t-25.5 75t-16 60.5t-8.5 50l-115 -5v91z"/>
<glyph glyph-name="W" horiz-adv-x="2038" unicode="W" d="M14 1434h497v-68q-60 -3 -94.5 -15t-47 -35.5t-12.5 -54.5q0 -8 2 -32.5t19 -85.5q57 -187 143.5 -437.5t101.5 -293t30 -90.5h4q10 34 22 73t23.5 76t68.5 214t84.5 261t52 159.5t105.5 332.5h66q100 -316 126 -392t122.5 -364t125.5 -385h5q212 642 259.5 789.5t63 188 t35.5 75.5l-164 -7v91h416v-68q-52 -6 -86 -18.5t-60.5 -44.5t-51 -89t-176.5 -513t-249 -721h-61l-383 1095l-361 -1095h-59q-383 1143 -397.5 1184.5t-25 74.5t-17.5 59.5t-11 49.5l-116 -5v91z"/>
<glyph glyph-name="X" horiz-adv-x="1329" unicode="X" d="M18 1434h530v-68l-90 -4q-56 -3 -76.5 -18.5t-20 -38.5t16 -52t33.5 -57q73 -112 144 -211.5t111 -154.5q274 394 297.5 425.5t44 56.5t36.5 40l-172 -9v91h403v-68q-49 -7 -93 -35t-84 -68t-75.5 -88t-299.5 -422l360 -477l141 -190l119 4v-90h-502v68q11 -1 20 -1 q44 0 69.5 12.5t31.5 35t-5.5 50t-29.5 52.5l-300 398q-241 -357 -280.5 -416.5t-89.5 -118.5l170 10v-90h-403v68q49 10 86 30.5t69 51t62 71.5t65 92l265 381q-89 126 -198.5 279t-138 195t-48 73t-31.5 55t-23 52l-114 -5v91z"/>
<glyph glyph-name="Y" horiz-adv-x="1298" unicode="Y" d="M581 553l-355 563q-53 82 -78 137.5t-33 94.5l-127 -5v91h528v-68q-71 0 -108 -16q-38 -16 -48 -46q-5 -13 -4 -29q0 -19 8 -42q14 -41 44 -90q38 -61 72 -115.5t68 -107.5t70.5 -108t80.5 -116h4q229 436 273 516t58 101t29 37l-162 -7v91h418v-68q-51 -3 -91 -20 t-75 -49.5t-67.5 -81t-326.5 -601.5q-1 -98 -1 -234q0 -45 -1 -76q0 -60 1 -60q0 -110 -6 -162l170 8v-90h-481v68q57 2 86 22t41 53.5t12 78.5v97z"/>
<glyph glyph-name="Z" horiz-adv-x="1249" unicode="Z" d="M88 94q58 81 131 184t163.5 234.5t198 295.5t234.5 366q29 46 61 92.5t70 91.5l-522 -8q-61 -3 -106 -23.5t-75 -62t-45 -104.5t-15 -150h-70l12 424h1016v-72l-735 -1116q-23 -33 -41.5 -58t-35 -45t-32 -36t-31.5 -31l498 8q67 1 125.5 21t101 61.5t67 104.5t24.5 149 h69l-12 -420h-1051v94z"/>
<glyph glyph-name="bracketleft" horiz-adv-x="735" unicode="[" d="M164 1546h543v-123l-390 -6l-9 -1810l403 -6v-123h-549z"/>
<glyph glyph-name="backslash" horiz-adv-x="1413" unicode="\" d="M43 1473l132 83l1197 -2037l-119 -75z"/>
<glyph glyph-name="bracketright" horiz-adv-x="735" unicode="]" d="M572 -522h-543v123l390 6l9 1810l-403 6v123h549z"/>
<glyph glyph-name="asciicircum" horiz-adv-x="1686" unicode="^" d="M936 1467l627 -573h-181l-545 500l-546 -490h-168l631 563h182z"/>
<glyph glyph-name="underscore" horiz-adv-x="1493" unicode="_" d="M117 -102l1259 -9v-116h-1259v125z"/>
<glyph glyph-name="grave" horiz-adv-x="516" unicode="`" d="M137 1405q-26 27 -35 50q-3 7 -6 17t-3 21q0 13 3.5 24t13.5 24t25.5 19.5t32 6.5t39 -11.5t45.5 -44.5l172 -276l-57 -47z"/>
<glyph glyph-name="a" horiz-adv-x="1057" unicode="a" d="M132 811q0 51 30 96t84 78.5t128.5 52.5t162.5 19q172 0 253.5 -91t80.5 -289l-2 -460q0 -32 -1.5 -64.5t-6.5 -74.5l145 8v-86h-293q-6 35 -9 61t-5 55q-69 -69 -150.5 -109t-172.5 -40q-77 0 -134.5 18.5t-95.5 51.5t-57 77.5t-19 95.5q0 63 27.5 115t74 92.5t108.5 70 t132 48.5q70 20 142 28q65 8 126 7h15v128q0 53 -6 103t-26.5 91t-64 65t-100.5 24q-33 0 -63 -5.5t-59 -18.5t-52.5 -34t-38.5 -50q15 -17 20.5 -37.5t5.5 -39.5q0 -12 -5 -27.5t-15.5 -29t-27 -22t-44.5 -8.5q-40 0 -63.5 29.5t-23.5 71.5zM694 501q-47 -2 -97.5 -8.5 t-99 -20t-91.5 -34.5t-75 -50t-50 -67q-16 -35 -16 -77v-9q1 -38 14.5 -66.5t35 -47t49.5 -28t60 -9.5q41 0 77 8t68.5 23.5t63 37.5t61.5 51v297z"/>
<glyph glyph-name="b" horiz-adv-x="1192" unicode="b" d="M579 956q-68 0 -134 -31.5t-114 -84.5v-518q0 -82 20 -134.5t54 -83t77.5 -42t90.5 -11.5q74 0 133.5 31.5t101 89t64 137.5t22.5 177q0 103 -19.5 189.5t-58.5 148.5t-98 97t-139 35zM155 1280q0 32 0.5 62t5.5 71l-145 -8v86q67 0 111.5 4.5t72.5 12.5t44 17.5t28 20.5 h59v-611q57 57 135.5 89.5t175.5 32.5q98 0 182.5 -36.5t147 -104t98 -164t35.5 -216.5q0 -131 -44.5 -236t-118 -179t-170 -114t-199.5 -40q-35 0 -74 5.5t-79 20t-78 38.5t-70 61l-49 -92h-72z"/>
<glyph glyph-name="c" horiz-adv-x="1090" unicode="c" d="M838 871q-14 36 -41 57.5t-58.5 33.5t-63 15.5t-52.5 3.5q-70 0 -130.5 -28.5t-104.5 -83.5t-69.5 -137t-25.5 -188q0 -102 25.5 -188.5t71.5 -149t111 -97.5t144 -35q48 0 95 13.5t89 37.5t77.5 56t60.5 69l53 -41q-41 -64 -93.5 -109.5t-110 -75t-116 -43.5t-110.5 -14 q-104 0 -196 35.5t-161 103t-109 165.5t-40 223q0 71 17.5 140t50.5 131.5t80 116t106.5 92.5t130 61t149.5 22q85 0 155 -21t120 -56t77 -80.5t27 -95.5q0 -44 -24.5 -75.5t-70.5 -32.5q-27 -1 -45 8.5t-29 23.5t-16 30.5t-5 29.5q0 20 6.5 42t24.5 41z"/>
<glyph glyph-name="d" horiz-adv-x="1225" unicode="d" d="M602 68q34 0 69 10t67.5 28t61 42.5t51.5 53.5q-1 25 -1 53v60l1 590q-49 38 -107 54.5t-119 16.5q-77 0 -139 -34t-105.5 -96.5t-63.5 -142.5t-20 -201q0 -83 22.5 -168.5t61 -143t94 -90t127.5 -32.5zM1026 217q0 -32 -1.5 -64.5t-6.5 -74.5l145 8v-86h-293 q-5 30 -8 56t-5 51q-59 -64 -142.5 -102t-186.5 -38q-95 0 -175.5 36t-140 103t-93 162.5t-33.5 214.5q0 125 39.5 230.5t109.5 182t166.5 119t210.5 42.5q34 0 68 -5t65.5 -13t58.5 -18t47 -21l1 280q0 32 0.5 62t5.5 71l-145 -8v86q67 0 111 4.5t72 12.5t43.5 17.5 t27.5 20.5h59v-1329z"/>
<glyph glyph-name="e" horiz-adv-x="1110" unicode="e" d="M1018 604l-721 -12v-12q0 -111 18 -202q19 -96 60 -164t105.5 -105t154.5 -37q48 0 98 13t96.5 35.5t85.5 54t65 67.5l50 -41q-42 -64 -97.5 -108.5t-115 -72.5t-119.5 -40.5t-112 -12.5q-106 0 -197.5 38t-158.5 109t-105.5 171t-38.5 225q0 108 37 206.5t105 174.5 t163 121t211 45q85 0 160.5 -28t132.5 -84t90 -141.5t33 -199.5zM604 977q-120 0 -198 -70.5t-103 -228.5h522q0 54 -12 107.5t-38.5 96t-68.5 69t-102 26.5z"/>
<glyph glyph-name="f" horiz-adv-x="692" unicode="f" d="M645 1447q-15 20 -40.5 28t-47.5 8q-48 0 -79 -21.5t-49 -56.5t-25.5 -78.5t-7.5 -87.5v-215h276v-80l-276 -5l2 -722q0 -41 -1 -72.5t-8 -66.5l129 6v-84h-417v61q47 0 71.5 18.5t35.5 51.5t12 79t1 101l-2 624l-168 -3v92h168v43q0 114 19.5 204.5t63.5 153.5t114.5 97 t171.5 34q33 0 71.5 -8.5t71 -27t54.5 -47t22 -68.5q0 -41 -24 -67t-61 -26q-26 0 -42 8.5t-26.5 21.5t-15 28t-4.5 27t2.5 24.5t8.5 25.5z"/>
<glyph glyph-name="g" horiz-adv-x="1133" unicode="g" d="M992 1065q-26 -4 -46 -16.5t-35 -31.5t-24.5 -41.5t-14.5 -45.5q51 -47 80.5 -110t29.5 -134q0 -87 -35.5 -159.5t-95.5 -125t-138.5 -81.5t-164.5 -29q-38 0 -67.5 5t-69.5 5q-38 0 -69.5 -10t-53 -27.5t-28.5 -34t-7 -28.5t4 -25q7 -24 32.5 -39t66.5 -23.5t97.5 -12.5 t127.5 -7q118 -5 211.5 -22.5t158.5 -53t99.5 -92t34.5 -139.5t-44.5 -146.5t-116 -107t-161 -66t-180.5 -22.5q-138 0 -235.5 24t-158.5 63.5t-89 89t-28 100.5q0 47 18 86t45.5 70t61 53.5t64.5 36.5q-66 20 -104 57.5t-38 103.5q0 36 15 70.5t42 63.5t64.5 49t82.5 28 q-47 22 -85 53.5t-65 71t-41.5 86.5t-14.5 101q0 92 37.5 167t98 128t138 81.5t157.5 28.5q69 0 136 -19.5t124 -57.5q15 43 41 80t58.5 63.5t70.5 41.5t79 15q52 0 80.5 -27t28.5 -75q0 -12 -5 -27t-15.5 -28t-27.5 -22t-41 -8q-35 1 -57 21.5t-28 50.5zM544 985 q-55 0 -98 -22t-72.5 -61t-45 -92t-15.5 -114q0 -74 16 -134.5t47 -104.5t76 -68t102 -24t99.5 21t71 58.5t43 89t14.5 111.5q0 67 -15 129t-45 108.5t-74.5 74.5t-103.5 28zM562 -67q-57 2 -110 5t-101 11q-57 -37 -87.5 -90t-30.5 -113q0 -51 24.5 -91.5t70 -69.5 t110 -44.5t143.5 -15.5q88 0 157.5 18t117.5 48t73 69.5t25 83.5q0 57 -29.5 92.5t-82 56t-124 29t-156.5 11.5z"/>
<glyph glyph-name="h" horiz-adv-x="1227" unicode="h" d="M192 1280q0 32 0.5 62t5.5 71l-145 -8v86q67 0 111.5 4.5t72.5 12.5t44 17.5t28 20.5h59v-624q34 28 74 53t83.5 43t89 28.5t89.5 10.5q89 0 153 -27.5t104.5 -84t60 -143t20.5 -203.5l2 -382q0 -41 -1 -72.5t-7 -66.5l129 6v-84h-418v61q47 0 71.5 18.5t35.5 51.5 t12.5 79t1.5 101v286q0 177 -56 264.5t-178 87.5q-35 0 -74 -10t-73.5 -27t-65 -40t-53.5 -50v-605q0 -41 -2 -72.5t-8 -66.5l129 6v-84h-418v61q47 0 72 18.5t36.5 51.5t13 79t1.5 101v969z"/>
<glyph glyph-name="i" horiz-adv-x="575" unicode="i" d="M406 1368q0 -25 -9.5 -47t-24.5 -38.5t-35 -25.5t-42 -9t-42 9t-35.5 25.5t-24 38.5t-8.5 47q0 26 9 48.5t24.5 39.5t35.5 26.5t43 9.5t42.5 -9.5t34.5 -26.5t23.5 -39.5t8.5 -48.5zM211 778q0 32 1.5 62t6.5 71l-145 -8v86q67 0 111 4.5t72 12.5t43.5 17.5t27.5 20.5h59 v-827q0 -41 -1 -72.5t-7 -66.5l129 6v-84h-418v61q47 0 71.5 18.5t35.5 51.5t12.5 79t1.5 101v467z"/>
<glyph glyph-name="j" horiz-adv-x="526" unicode="j" d="M382 1368q0 -25 -9.5 -47t-24.5 -38.5t-35 -25.5t-42 -9t-42 9t-35.5 25.5t-24 38.5t-8.5 47q0 26 9 48.5t24.5 39.5t35.5 26.5t43 9.5t42.5 -9.5t34.5 -26.5t23.5 -39.5t8.5 -48.5zM-180 -441q0 38 24.5 67.5t63.5 29.5q25 0 42 -8.5t27.5 -21.5t15 -28.5t4.5 -27.5 v-9.5t-1 -9.5q29 -12 52 -12q13 0 35 5.5t49 29.5q34 32 46.5 97.5t12.5 151.5l4 955q0 32 0.5 62t5.5 71l-145 -8v86q67 0 111.5 4.5t72.5 12t44 17.5t28 21h59v-1051q0 -143 -29.5 -246.5t-82 -170.5t-123.5 -99t-154 -32q-42 0 -73 9.5t-50.5 25.5t-29 36.5t-9.5 42.5z "/>
<glyph glyph-name="k" horiz-adv-x="1100" unicode="k" d="M679 1024h373v-61q-52 -6 -99.5 -29.5t-89 -55.5t-76.5 -67l-63 -63l-159 -168q40 -19 69 -47t58 -64l145 -186q6 -8 20.5 -28t34 -44.5t43.5 -51t49.5 -48.5t51 -36t49.5 -14v-61h-186q-28 0 -55 16.5t-53.5 43.5t-53 61.5t-54.5 71.5q-81 110 -137 190.5t-96 118.5 l-84 -4v-281q0 -41 -1 -72.5t-7 -66.5l131 6v-84h-418v61q47 0 71.5 18.5t35 51.5t12.5 79t2 1070q0 32 0.5 62t5.5 71l-145 -8v86q67 0 111 4.5t72 12.5t43.5 17.5t27.5 20.5h59v-968h82l250 262q34 35 63 62.5t58 45.5l-140 -6v82z"/>
<glyph glyph-name="l" horiz-adv-x="557" unicode="l" d="M190 1280q0 32 0.5 62t5.5 71l-145 -8v86q67 0 111.5 4.5t72.5 12.5t44 17.5t28 20.5h59l2 -1329q0 -41 -2 -72.5t-8 -66.5l129 6v-84h-418v61q47 0 71.5 18.5t35.5 51.5t12.5 79t1.5 101v969z"/>
<glyph glyph-name="m" horiz-adv-x="1831" unicode="m" d="M211 778q0 32 1 65t7 68l-145 -8v86q67 0 109 4.5t67.5 12.5t39.5 17.5t26 20.5h59q2 -20 4 -46t4 -63q31 26 67 48.5t74.5 39t79 25.5t80.5 9q104 0 173 -37.5t108 -100.5q34 29 75 54t85 44t90 29.5t90 10.5q89 0 154.5 -26t108 -81.5t61 -138.5t18.5 -190v-22l-2 -382 q0 -41 -1 -72.5t-7 -66.5l129 6v-84h-418v61q47 0 71.5 18.5t35.5 51.5t12.5 79t1.5 101v286q0 177 -56 264.5t-178 87.5q-64 0 -127.5 -29t-110.5 -72q21 -69 21 -149l-4 -482q0 -41 -1 -72.5t-7 -66.5l129 6v-84h-418v61q47 0 71.5 18.5t35 51.5t12 79t2.5 101l2 286v7 q0 171 -52 260t-173 89q-63 0 -124.5 -27.5t-104.5 -71.5q0 -24 0.5 -51.5t0.5 -58.5v-527q0 -41 -1 -72.5t-7 -66.5l129 6v-84h-418v61q47 0 71.5 18.5t35.5 51.5t12.5 79t1.5 101v467z"/>
<glyph glyph-name="n" horiz-adv-x="1243" unicode="n" d="M213 778q0 32 1 65t7 68l-145 -8v86q67 0 109 4.5t67.5 12.5t39.5 17.5t26 20.5h59q2 -23 4.5 -52.5t4.5 -71.5q33 29 72.5 54t82.5 43.5t88.5 29t89.5 10.5q178 0 260 -111.5t82 -346.5v-382q0 -41 -1 -72.5t-7 -66.5l129 6v-84h-418v61q47 0 71.5 18.5t35.5 51.5 t12.5 79t1.5 101v286q-2 177 -58 266.5t-178 89.5q-37 0 -74 -11t-71 -28.5t-64 -41.5t-52 -52q1 -18 1 -38.5v-41.5l-2 -523q0 -41 -1 -72.5t-7 -66.5l129 6v-84h-418v61q47 0 71.5 18.5t35 51.5t12 79t2.5 101z"/>
<glyph glyph-name="o" horiz-adv-x="1198" unicode="o" d="M598 1057q108 0 202 -39.5t163.5 -109t110 -165t40.5 -206.5q0 -119 -39.5 -223t-109 -181t-164 -121.5t-203.5 -44.5q-108 0 -201.5 38.5t-163 107.5t-109.5 164.5t-40 209.5q0 121 39.5 225.5t108.5 181t163 120t203 43.5zM598 979q-81 0 -138.5 -36t-94.5 -96 t-54.5 -138t-17.5 -162q0 -95 19.5 -185t59.5 -159.5t100.5 -111.5t141.5 -42t136.5 36.5t90 96.5t49.5 137t15 158q0 92 -17 182t-54 161t-95.5 115t-140.5 44z"/>
<glyph glyph-name="p" horiz-adv-x="1223" unicode="p" d="M613 957q-36 0 -70 -9.5t-65 -25t-58.5 -36.5t-48.5 -44q0 -8 0.5 -18.5t0.5 -35.5v-70.5t-0.5 -122t-1 -190.5t-0.5 -276q51 -38 112 -59t128 -21q73 0 131 35t99 97.5t63 148t22 187.5q0 83 -17.5 162t-55 141t-96.5 99.5t-143 37.5zM196 778q0 32 1 65t7 68l-145 -8 v86q67 0 109 4.5t67.5 12.5t39.5 17.5t25 20.5h60q2 -20 4 -47t4 -63q31 27 68.5 50t79 39t84.5 25t86 9q89 0 170.5 -35t143.5 -100.5t99 -160t37 -213.5q0 -87 -19.5 -164t-54.5 -141.5t-83.5 -115.5t-106.5 -86.5t-123.5 -54.5t-134.5 -19q-142 0 -245 67l-1 -339 q0 -41 -1 -72.5t-7 -66.5l129 6v-84h-418v61q47 0 71.5 18.5t35 51.5t12 79t2.5 101z"/>
<glyph glyph-name="q" horiz-adv-x="1180" unicode="q" d="M618 68q68 0 130 35.5t104 94.5v537q0 62 -12 108.5t-40 77t-72.5 46t-110.5 15.5q-75 0 -134.5 -32t-100.5 -90.5t-63 -140t-22 -180.5t21.5 -184.5t63 -149.5t101 -100.5t135.5 -36.5zM1028 -305q0 -41 -1 -72.5t-7 -66.5l129 6v-84h-418v61q47 0 71.5 18.5t35.5 51.5 t12.5 79t1.5 101v307q-54 -61 -131.5 -95t-175.5 -34q-96 0 -179.5 37t-146 105t-98 164.5t-35.5 215.5q0 128 41.5 233t112.5 179.5t167 115t205 40.5q63 0 116 -13.5t94 -22.5t72 -9q6 0 27 1t48 31h57z"/>
<glyph glyph-name="r" horiz-adv-x="887" unicode="r" d="M678 945h-5q-37 0 -75.5 -15t-77 -45t-72.5 -72t-61 -93l2 -503q0 -41 -1 -72.5t-7 -66.5l129 6v-84h-420v61q47 0 71.5 18.5t35.5 51.5t12.5 79t1.5 101v468q0 32 1 64.5t7 67.5l-145 -6v84h63q44 0 73 4.5t48.5 12.5t32.5 17.5t25 20.5h59q3 -32 5.5 -79.5t4.5 -122.5 q23 38 59 76.5t81 69t97 50t107 19.5q28 0 54.5 -7.5t46 -23.5t31.5 -40t12 -58q0 -14 -5.5 -31t-18 -32t-31.5 -25t-47 -10q-23 0 -41.5 10t-31 25.5t-18 36t-2.5 43.5z"/>
<glyph glyph-name="s" horiz-adv-x="948" unicode="s" d="M474 47q39 0 78.5 9.5t72 29.5t53 50.5t20.5 72.5q0 49 -25.5 83.5t-67 61t-95 47.5t-109 43t-108.5 48.5t-94.5 62.5t-67 86t-25.5 119q0 43 16 94.5t56 96.5t107.5 75.5t170.5 30.5q28 0 59.5 -4t64.5 -14.5t66 -27.5t65 -42l-5 78h86v-359h-64q-4 53 -20.5 105 t-48 93.5t-79.5 67.5t-114 26q-48 0 -85 -12.5t-62.5 -34t-38.5 -49.5t-13 -59q0 -50 25.5 -86t67.5 -64t96 -50.5t110 -46t110 -50t96 -62.5t67.5 -84t25.5 -114q0 -77 -31 -134t-81.5 -94t-114 -55t-128.5 -18q-104 0 -183 27.5t-130 62.5l7 -71h-86l-12 352h63 q4 -64 29.5 -117.5t67 -92t95 -60t113.5 -21.5z"/>
<glyph glyph-name="t" horiz-adv-x="793" unicode="t" d="M43 1024q54 1 98 29.5t77.5 71t56.5 92.5t36 94h70q0 -82 -0.5 -153t-0.5 -134h345v-80l-345 -4q-1 -133 -1 -227t-0.5 -157t-0.5 -99.5t-0.5 -55.5t-0.5 -24.5v-6.5q0 -70 7.5 -123.5t25.5 -90t47.5 -55t74.5 -18.5q53 0 105 32t92 91l55 -45q-45 -68 -89.5 -106.5 t-84.5 -58t-74.5 -24.5t-60.5 -5q-31 0 -63.5 5t-64 19.5t-59 41t-48.5 68.5t-32.5 99.5t-11.5 132.5v12l4 592l-157 -1v88z"/>
<glyph glyph-name="u" horiz-adv-x="1223" unicode="u" d="M850 755q0 50 2 85.5t8 70.5l-147 -6v84h63q44 0 75 4.5t53 12.5t36.5 17.5t26.5 20.5h59l-2 -774q0 -16 -0.5 -40.5t-1.5 -51t-2.5 -53t-3.5 -47.5l147 8v-86h-293q-5 35 -8.5 64.5t-5.5 58.5q-32 -32 -71 -60.5t-82.5 -49.5t-89.5 -33.5t-91 -12.5q-84 0 -147 22.5 t-105 74.5t-63 137.5t-21 212.5v364q0 32 1 65t7 68l-141 -6v84h64q43 0 74 4.5t53 12.5t36.5 17.5t26.5 20.5h59v-624q0 -89 12 -154.5t38.5 -109t68.5 -64t103 -20.5q39 0 76.5 13t71.5 35t63.5 50t50.5 60v85v440z"/>
<glyph glyph-name="v" horiz-adv-x="1034" unicode="v" d="M561 -6h-82l-293 668q-25 58 -41.5 103t-26 79.5t-13.5 59t-5 42.5l-88 -6v84h377v-61q-47 0 -67.5 -19t-21.5 -37t-1 -22q0 -28 11.5 -66.5t31.5 -83.5l157 -360q16 -35 31 -73.5t31 -77.5h2q11 30 23.5 64t24.5 68l163 449q17 49 34.5 86t26.5 55l-131 -6v84h324v-61 q-34 0 -59 -17.5t-47 -52t-44 -86.5t-49 -121z"/>
<glyph glyph-name="w" horiz-adv-x="1640" unicode="w" d="M12 1024h434v-61q-46 -2 -70 -18.5t-29.5 -38.5t-5.5 -40q0 -17 5 -46.5t22 -78.5l161 -484q236 700 257 767h84l273 -782q210 609 224.5 645.5t33.5 59.5l-119 -7v84h356v-61q-53 -3 -87 -15.5t-56 -33t-36.5 -49t-27.5 -65.5l-295 -806h-82l-268 775l-266 -775h-78 l-268 786q-23 65 -35.5 103.5t-17.5 62.5l-109 -6v84z"/>
<glyph glyph-name="x" horiz-adv-x="1085" unicode="x" d="M45 1024h422v-61q-46 -2 -72.5 -12t-31.5 -31.5t11 -56.5t54 -87l119 -162q256 313 278 334l-141 -8v84h336v-61q-42 -12 -73.5 -29.5t-60 -43t-288.5 -335.5l282 -351q24 -30 45.5 -59t44.5 -67l93 6v-84h-396v61q25 0 44 5.5t27.5 18t4 31.5t-25.5 46l-216 266 q-209 -286 -218.5 -298t-20.5 -24t-26 -28l157 6v-84h-344v61q31 8 55 21t45.5 33t298.5 379q-252 336 -274 379t-33 72l-96 -5v84z"/>
<glyph glyph-name="y" horiz-adv-x="1081" unicode="y" d="M264 -448q11 -5 23 -5q18 0 46.5 15.5t57.5 65.5q26 45 62.5 134.5t81.5 214.5q-347 743 -366 788t-31.5 79t-20 59t-10.5 42l-99 -5v84h424v-61l-9 -1q-43 -3 -65 -19q-23 -15 -28 -45q-2 -9 -2 -21q0 -25 8 -57q11 -48 281 -613q213 621 226.5 653t26 56t23.5 32 l-141 -8v84h321v-61q-38 -15 -65.5 -38.5t-48.5 -57t-39 -76.5t-293 -809q-47 -129 -86 -229.5t-81.5 -168.5t-93 -103.5t-118.5 -35.5q-32 0 -60 7.5t-49 23t-33 39t-12 54.5q0 19 6 37t17.5 32t28 22.5t36.5 8.5q24 0 40.5 -9t26.5 -23t14 -29.5t4 -27.5q0 -6 -0.5 -13.5 t-2.5 -14.5z"/>
<glyph glyph-name="z" horiz-adv-x="1047" unicode="z" d="M82 0v84q620 798 635.5 816t29 32t23.5 20l-385 -6q-57 -1 -94 -24t-59.5 -62t-34.5 -91.5t-21 -111.5h-63l24 367h803v-66l-577 -759q-13 -17 -24.5 -31t-23.5 -27.5t-26 -27t-33 -29.5l395 -6h5q60 0 102.5 22.5t70.5 62.5t43.5 94t24.5 116h60l-25 -373h-850z"/>
<glyph glyph-name="braceleft" horiz-adv-x="684" unicode="{" d="M192 537q44 -9 85.5 -30t73.5 -55.5t51.5 -83t19.5 -112.5q0 -24 -2 -56.5t-5 -69.5q-13 -152 -15 -177.5t-3 -42.5t-1.5 -29.5t-0.5 -25.5q0 -87 11 -153t39.5 -110.5t77.5 -67t124 -22.5h12v-57h-57q-105 0 -175.5 28t-112.5 83t-59.5 137t-17.5 190q0 45 3.5 97.5 t7 105.5t7 103t3.5 90q0 52 -9.5 91t-32 64.5t-60.5 38.5t-95 13h-47v106h47q57 0 95 11.5t60.5 35.5t32 61.5t9.5 90.5q0 81 -10.5 166.5t-10.5 176.5q0 108 17.5 187.5t59.5 131.5t112.5 77.5t175.5 25.5h57v-70h-23q-72 0 -118.5 -19t-74 -59t-38 -100.5t-10.5 -144.5 q0 -17 1 -37.5t3 -43.5l13 -139q5 -48 8 -80t2 -50q0 -64 -19.5 -111.5t-51.5 -80.5t-73.5 -52.5t-85.5 -27.5v-4z"/>
<glyph glyph-name="bar" horiz-adv-x="473" unicode="|" d="M315 1556l-8 -2111h-139l-6 2111h153z"/>
<glyph glyph-name="braceright" horiz-adv-x="684" unicode="}" d="M492 537v4q-44 8 -85.5 27.5t-73.5 52.5t-51.5 80.5t-19.5 111.5q-1 18 2 50t8 80l13 139q2 23 3 43.5t1 37.5q0 84 -10.5 144.5t-38 100.5t-74 59t-118.5 19h-23v70h57q105 0 175.5 -25.5t112.5 -77.5t59.5 -131.5t17.5 -187.5q0 -91 -10.5 -176.5t-10.5 -166.5 q0 -53 9.5 -90.5t32 -61.5t60.5 -35.5t95 -11.5h47v-106h-47q-57 0 -95 -13t-60.5 -38.5t-32 -64.5t-9.5 -91q0 -40 3.5 -90t7 -103t7 -105.5t3.5 -97.5q0 -108 -17.5 -190t-59.5 -137t-112.5 -83t-175.5 -28h-57v57h12q75 0 124 22.5t77.5 67t39.5 110.5t11 153 q0 13 -0.5 25.5t-1.5 29.5t-3 42.5t-15 177.5q-3 37 -5 69.5t-2 56.5q0 64 19.5 112.5t51.5 83t73.5 55.5t85.5 30z"/>
<glyph glyph-name="asciitilde" horiz-adv-x="1188" unicode="~" d="M391 627q-42 0 -76 -8t-64 -21.5t-57 -31.5t-55 -38v129q32 26 61.5 46.5t60 34.5t64 21t74.5 7q55 0 96 -11.5t73 -28.5t58.5 -37.5t54 -37.5t59 -28.5t73.5 -11.5q68 0 127.5 26.5t108.5 71.5v-129q-42 -48 -102.5 -77.5t-141.5 -29.5q-51 0 -90.5 11.5t-71.5 28.5 t-60 37t-57 37t-61.5 28.5t-73.5 11.5z"/>
<glyph glyph-name="uni00A0" horiz-adv-x="539" unicode=" "/>
<glyph glyph-name="exclamdown" horiz-adv-x="498" unicode="¡" d="M211.019 553.028h75.9961l79.9951 -844.948q1.99902 -26.998 -4.5 -53.9961q-6.5 -26.999 -21.499 -48.4971q-14.999 -21.499 -37.9971 -34.998q-22.999 -13.499 -54.9971 -13.499q-32.998 0 -55.9971 13.499q-22.998 13.499 -37.4971 34.998 q-14.499 21.498 -19.999 48.4971q-5.5 26.998 -3.5 53.9961zM129.023 926.006q0 26.998 10 50.9971q9.99902 23.998 26.998 41.9971t38.498 27.998q21.498 10 45.4971 10q23.998 0 45.4971 -10q21.499 -9.99902 37.998 -27.998t25.998 -41.9971 q9.49902 -23.999 9.49902 -50.9971q0 -27.998 -9.99902 -52.4971q-9.99902 -24.498 -26.498 -42.4971t-38.498 -28.498q-21.998 -10.5 -45.9971 -10.5q-24.998 0 -46.9971 10.5q-21.999 10.499 -37.998 28.498t-24.998 42.4971q-9 24.499 -9 52.4971z"/>
<glyph glyph-name="cent" horiz-adv-x="1087" unicode="¢" d="M828 873q-14 36 -41 57.5t-58.5 33.5t-62.5 15.5t-53 3.5q-70 0 -130.5 -28.5t-104.5 -84.5t-69.5 -138t-25.5 -188q0 -102 25.5 -189t71.5 -150t111 -98.5t144 -35.5q48 0 95 14t89 38t77.5 56.5t60.5 69.5l53 -41q-36 -56 -81.5 -98.5t-95.5 -72t-102 -47t-101 -23.5 l-1 -241h-119l-1 241q-92 11 -171 52t-138 108.5t-92.5 160t-33.5 206.5q0 95 31.5 188t89 170.5t138.5 132t180 72.5l-1 217h133l-2 -217q78 -5 141.5 -27t108.5 -56t69.5 -77.5t24.5 -90.5q0 -22 -6.5 -41.5t-18.5 -34.5t-29.5 -23.5t-40.5 -8.5q-27 0 -45 9t-29 23 t-16 30t-5 30q0 20 6.5 42t24.5 41z"/>
<glyph glyph-name="sterling" horiz-adv-x="1122" unicode="£" d="M788 1288q-11 40 -52.5 70.5t-113.5 30.5q-58 0 -101.5 -24t-72.5 -64t-43.5 -92t-14.5 -109q0 -52 4.5 -99.5t11.5 -92t15.5 -87t17.5 -84.5h310v-98h-293q5 -37 8.5 -74.5t3.5 -77.5q0 -66 -29 -128t-77 -119q26 4 52.5 6t53.5 2q67 0 126.5 -19t111 -42.5t94.5 -42.5 t78 -19q46 0 75.5 31.5t34.5 97.5h64q-2 -62 -16.5 -114.5t-40.5 -91t-64.5 -60t-87.5 -21.5q-43 0 -83.5 14.5t-80 36.5t-78.5 47.5t-79.5 47.5t-83 36.5t-88.5 14.5q-21 0 -33 -2q-5 -39 -19 -74.5t-33.5 -62.5t-43 -42.5t-48.5 -15.5q-37 0 -57 23.5t-20 52.5 q0 28 13.5 55t37 51t56 42.5t71.5 29.5q23 36 38 83t15 104q0 66 -10.5 121t-25.5 110h-163v98h136q-15 60 -26 127t-11 154q0 102 28.5 185t78.5 141.5t119.5 90.5t152.5 32q90 0 151.5 -24t99 -60t53.5 -78t16 -77t-21.5 -62t-60.5 -27q-23 0 -38.5 8t-25.5 20t-14 26 t-4 26q0 11 4.5 31t21.5 38z"/>
<glyph glyph-name="currency" horiz-adv-x="1096" unicode="¤" d="M549 845q-38 0 -68 -14.5t-52.5 -38t-38 -54t-25 -63t-13.5 -64t-4 -57.5q0 -49 8.5 -107.5t31 -109.5t61.5 -85t100 -34t100 34t61.5 85t31 109.5t8.5 107.5q0 39 -10 89.5t-33 95t-61.5 75.5t-96.5 31zM208 976l110 -138q46 37 103.5 58.5t127.5 21.5q69 0 125.5 -21 t104.5 -59l111 138l83 -66l-126 -144q39 -53 59 -117t20 -128q0 -63 -18.5 -125t-55.5 -111l121 -137l-83 -66l-106 132q-45 -35 -104.5 -55.5t-131.5 -20.5t-130.5 20t-104.5 55l-105 -131l-83 66l120 136q-37 51 -55 112.5t-18 124.5q0 64 20 128.5t59 117.5l-126 143z "/>
<glyph glyph-name="yen" horiz-adv-x="1444" unicode="¥" d="M388 648h202l-295 468q-53 82 -78 137.5t-33 94.5l-127 -5v91h528v-68q-86 0 -123 -24t-37 -66q0 -28 13.5 -61t38.5 -72q38 -61 71.5 -115.5t67.5 -108t71 -108t81 -115.5h4q36 70 69 133.5t65 123.5t63.5 119.5t64.5 121.5q7 15 17.5 35t23.5 42t27.5 42.5t29.5 36.5 l-162 -7v91h418v-68q-51 -3 -91 -20t-75 -49.5t-67.5 -81t-67.5 -113.5l-242 -457h249v-88l-267 -2l-1 -130l268 -1v-88l-268 -2q0 -90 1 -90q0 -110 -6 -162l170 8v-90h-481v68q48 1 76 16t42 39.5t17.5 58.5t3.5 75v75h-261v94h262v127h-262v95z"/>
<glyph glyph-name="brokenbar" horiz-adv-x="498" unicode="¦" d="M325 207l-8 -762h-139l-6 762h153zM325 1556l-8 -767h-139l-6 767h153z"/>
<glyph glyph-name="section" horiz-adv-x="1092" unicode="§" d="M170 -205q0 20 6.5 39t18.5 33.5t29 23.5t38 9q23 0 38.5 -8.5t25.5 -21.5t14 -29.5t4 -32.5q0 -11 -6 -30t-17 -33q2 -26 19.5 -49.5t45.5 -42.5t64.5 -30t76.5 -11q70 0 118.5 21t78 53t42.5 70t13 72q0 58 -30 104.5t-79.5 86.5t-112.5 77t-128.5 75.5t-128.5 82 t-112.5 97t-79.5 120t-30 151.5q0 43 12 88.5t35.5 89t57 85t76.5 77.5q-39 45 -62.5 104.5t-23.5 125.5q0 35 8 76t26 81t47.5 77.5t72.5 66.5t100 46t131 17q82 0 149.5 -22.5t115.5 -58.5t74.5 -81.5t26.5 -91.5q0 -19 -5.5 -36t-16.5 -30t-26.5 -21t-36.5 -8 q-26 0 -42 8.5t-25.5 21t-14 27t-4.5 27.5q0 12 5.5 34t19.5 35q-10 25 -30 47t-47.5 37.5t-61.5 24.5t-73 9q-71 0 -119 -22t-77.5 -55.5t-42.5 -72.5t-13 -73q0 -58 30 -104.5t79.5 -86.5t112.5 -77t129 -75.5t129 -82t112.5 -97t79.5 -120t30 -151.5q0 -44 -12 -89.5 t-35.5 -89.5t-57 -85.5t-76.5 -77.5q38 -45 61.5 -100.5t23.5 -127.5q0 -33 -8.5 -72t-27 -79t-48 -77t-72.5 -66t-99.5 -46.5t-129.5 -17.5q-90 0 -158.5 23.5t-114 61t-69 84t-23.5 93.5zM236 698q0 -74 27 -130t72 -100.5t103 -81t119.5 -71t122 -70.5t110.5 -80 q35 45 53 104t18 116q0 73 -27.5 129t-72.5 100t-103 80.5t-119.5 71t-122 70.5t-110.5 80q-35 -46 -52.5 -103.5t-17.5 -114.5z"/>
<glyph glyph-name="dieresis" horiz-adv-x="793" unicode="¨" d="M669 1369q0 -25 -8.5 -47t-22.5 -38.5t-32.5 -26t-38.5 -9.5q-21 0 -39.5 9.5t-32.5 26t-22 38.5t-8 47t8.5 48t22.5 39.5t33 26.5t39 10q22 0 40.5 -10t32 -26.5t21 -39.5t7.5 -48zM327 1369q0 -25 -8.5 -47t-22.5 -38.5t-32.5 -26t-38.5 -9.5q-21 0 -39.5 9.5t-32.5 26 t-22 38.5t-8 47t8.5 48t22.5 39.5t33 26.5t39 10q22 0 40.5 -10t32 -26.5t21 -39.5t7.5 -48z"/>
<glyph glyph-name="copyright" horiz-adv-x="1796" unicode="©" d="M924 1116q-59 0 -116 -24.5t-102 -72.5t-72.5 -120t-27.5 -166q0 -85 26.5 -157.5t74.5 -125t114.5 -82.5t147.5 -30q34 0 73.5 10.5t79 30t76.5 47.5t66 63l61 -71q-45 -62 -99.5 -102.5t-110 -64t-109 -33t-96.5 -9.5q-107 0 -197.5 38.5t-157 106t-104 159 t-37.5 196.5q0 60 14.5 122t42.5 119.5t70 108t98 88t125.5 59t151.5 21.5q75 0 144 -23t123 -61l-7 74h102v-345h-82q-8 67 -31.5 113.5t-59.5 75.5t-82 42t-99 13zM228 713q0 -94 21 -183.5t61 -169t98.5 -145.5t133.5 -114t165.5 -74.5t195.5 -26.5q102 0 191.5 26.5 t164 74.5t133.5 114t99.5 145.5t62 169t21.5 183.5q0 95 -22 185.5t-63.5 170.5t-101 147.5t-135 116.5t-165.5 76t-191 27q-100 0 -188.5 -27t-163 -76t-133.5 -116.5t-100 -147.5t-62.5 -170.5t-21.5 -185.5zM90 713q0 113 27.5 218t78 196.5t123 166.5t163 129t196 83.5 t223.5 29.5q119 0 225 -29.5t196 -83.5t162 -129t122 -166.5t77 -196.5t27 -218q0 -112 -29 -216t-81.5 -194.5t-126.5 -165t-164.5 -127.5t-194.5 -82.5t-217 -29.5q-182 0 -331 61t-254.5 170t-163.5 258t-58 326z"/>
<glyph glyph-name="ordfeminine" horiz-adv-x="838" unicode="ª" d="M144 1278q0 35 20 69t55.5 60.5t84 43t106.5 16.5q111 0 170 -59t59 -186l-2 -228v-8q0 -58 15 -86.5t43 -28.5q13 0 36 17l23 -39q-9 -12 -23.5 -23.5t-32.5 -21t-37.5 -15.5t-37.5 -6q-27 0 -46.5 7.5t-32 20t-20 28t-11.5 31.5q-38 -42 -87.5 -66.5t-113.5 -24.5 q-100 0 -150.5 43t-50.5 109q0 62 37.5 106.5t96 73t129.5 42t138 13.5v70q0 31 -3 60.5t-16 52t-39 36t-72 13.5q-19 0 -38.5 -5.5t-36.5 -16t-29.5 -25t-18.5 -31.5q17 -20 17 -50q0 -10 -3.5 -21t-11.5 -20.5t-20.5 -16t-31.5 -6.5q-30 0 -47.5 21.5t-17.5 50.5z M511 1102q-46 0 -91.5 -9t-82 -27t-59 -46t-22.5 -66q0 -33 15 -52.5t33 -27.5t32 -8l14 -1q42 0 82.5 20.5t75.5 55.5z"/>
<glyph glyph-name="guillemotleft" horiz-adv-x="1085" unicode="«" d="M501.035 546.034v6l405.976 398.976l64.9961 -60.9961l-247.984 -331.98v-3.99902l243.984 -335.979l-65.9961 -60.9971zM65.0625 540.035v7.99902l560.966 574.965l62.9961 -64.9961l-402.976 -517.968v-4l398.976 -485.971l-64.9961 -64.9961z"/>
<glyph glyph-name="logicalnot" horiz-adv-x="1212" unicode="¬" d="M150 705l912 -5v-378h-105l-7 259l-800 -3v127z"/>
<glyph glyph-name="uni00AD" horiz-adv-x="1001" unicode="­" d="M137 727h727v-135l-727 -8v143z"/>
<glyph glyph-name="registered" horiz-adv-x="1798" unicode="®" d="M764 748h2q17 -2 35 -3t36 -1q22 0 51.5 3.5t60 12.5t60 24t52.5 38t37 55t14 75q0 46 -19 81.5t-50.5 59.5t-72.5 36.5t-84 12.5q-48 0 -73 -12.5t-36 -35t-12 -54.5t-1 -71v-221zM764 461q0 -35 -1 -60.5t-3 -44.5l102 4v-81h-348v69q37 1 57.5 13t29.5 33.5t10.5 51.5 t1.5 66v535q0 27 0.5 52.5t3.5 45.5l-103 -10v86q32 1 72.5 2.5t84 3t87 2.5t82.5 1q113 0 195 -20t134.5 -56t77.5 -86t25 -110q0 -34 -12 -74t-41 -78.5t-76.5 -71t-119.5 -52.5v-2q17 -8 39 -27.5t48 -56.5q58 -87 96 -137.5t65.5 -77t48 -34t42.5 -7.5v-70h-178 q-31 8 -67 50t-87 114q-45 63 -84 122.5t-70 104.5q-15 -3 -43 -3q-20 0 -39 1t-30 3v-201zM230 713q0 -95 20.5 -184.5t60.5 -168.5t98 -144.5t132.5 -113t165.5 -74t196 -26.5q103 0 192.5 26.5t164 74t133 113t99 144.5t62 168.5t21.5 184.5t-22 185.5t-63 171t-101 148 t-135 116t-165 75.5t-192 27q-101 0 -189.5 -27t-162.5 -75.5t-132.5 -116t-99 -148t-62 -171t-21.5 -185.5zM90 713q0 113 27 218.5t78 197t123 166.5t162.5 128.5t196.5 83t224 29.5q120 0 226.5 -29.5t196.5 -83t161.5 -128.5t121.5 -166.5t76.5 -197t26.5 -218.5 t-28.5 -217.5t-81 -195t-126.5 -165t-164 -127t-194.5 -81.5t-218.5 -29q-183 0 -331.5 60.5t-254.5 169t-163.5 258t-57.5 327.5z"/>
<glyph glyph-name="macron" horiz-adv-x="727" unicode="¯" d="M92 1434h543v-115l-543 -8v123z"/>
<glyph glyph-name="degree" horiz-adv-x="829" unicode="°" d="M96 1148q0 67 25.5 125t69.5 101t102.5 68t123.5 25q72 0 130.5 -25t100 -68t63.5 -101t22 -125t-26 -125t-70 -101.5t-102.5 -68.5t-123.5 -25q-72 0 -130 25t-99.5 68.5t-63.5 101.5t-22 125zM225 1148q0 -42 13.5 -81t38.5 -69t60 -47.5t78 -17.5q42 0 77 17.5 t60 47.5t38.5 69t13.5 81t-13.5 81t-38.5 69.5t-60.5 48.5t-78.5 18q-42 0 -76.5 -18t-59.5 -48.5t-38.5 -69.5t-13.5 -81z"/>
<glyph glyph-name="plusminus" horiz-adv-x="1180" unicode="±" d="M1045 6h-912v106l912 9v-115zM133 737l389 -2v322h132v-322l391 -2v-115l-391 -2v-340h-132v339l-389 -1v123z"/>
<glyph glyph-name="twosuperior" horiz-adv-x="788" unicode="²" d="M239 1311q19 -17 19 -47q0 -9 -3 -19.5t-10.5 -19.5t-19 -15t-28.5 -6q-26 0 -42 19t-16 47q0 30 16.5 64.5t48.5 64t79.5 49t109.5 19.5q48 0 92 -13t78.5 -40t55 -68t20.5 -98q0 -30 -8 -62.5t-33.5 -70.5t-73 -83.5t-125.5 -102.5q-137 -100 -162 -187l173 -4 q21 -1 41 -1.5t37 -0.5q27 0 49 3t37 12t23.5 25.5t8.5 43.5h43v-193h-524q0 64 19.5 116.5t52.5 98.5t76.5 86.5t91.5 79.5q43 35 68.5 68.5t39.5 64t18.5 57.5t4.5 48q0 66 -33 106.5t-96 40.5q-25 0 -46.5 -7t-38.5 -18t-28 -26t-15 -31z"/>
<glyph glyph-name="threesuperior" horiz-adv-x="758" unicode="³" d="M111 808q0 32 17.5 53.5t49.5 21.5q16 0 27.5 -6t19 -15.5t10.5 -21.5t3 -23t-4.5 -23t-11.5 -21q3 -21 15 -35.5t30 -24t40 -14t45 -4.5q40 0 70 15t49.5 39.5t29.5 55t10 62.5q0 25 -6 55.5t-23.5 58t-53.5 45.5t-85 18q-26 0 -57 -2v65h24q59 0 93 17t51 41t21.5 49 t4.5 42q0 25 -6.5 50.5t-21.5 46t-39.5 33.5t-60.5 13q-53 0 -83.5 -26t-36.5 -56q18 -18 18 -45q0 -9 -3 -19.5t-10.5 -19.5t-19 -15t-28.5 -6q-27 0 -42 20.5t-15 46.5q0 28 15.5 60.5t45.5 61t75.5 47.5t105.5 19q53 0 96.5 -14t74 -40t47.5 -63t17 -82q0 -26 -11 -53.5 t-32.5 -52.5t-54 -45t-75.5 -31v-2q53 -5 93 -24t67 -48t40.5 -66.5t13.5 -78.5q0 -50 -19.5 -94t-56 -77t-90 -52t-120.5 -19q-62 0 -109 16t-79 42.5t-48.5 59t-16.5 65.5z"/>
<glyph glyph-name="acute" horiz-adv-x="516" unicode="´" d="M149 1188l-57 47l172 276q23 33 45.5 44.5t39 11.5t32 -6.5t25.5 -19.5t13.5 -24t3.5 -24q0 -11 -3 -21t-6 -17q-9 -23 -35 -50z"/>
<glyph glyph-name="mu" horiz-adv-x="1257" unicode="µ" d="M1006 1024l-2 -735q0 -53 6.5 -89.5t18.5 -59t29 -32.5t38 -10q19 0 38.5 7.5t47.5 27.5l23 -31q-13 -18 -34 -38.5t-47.5 -37t-58.5 -27.5t-67 -11q-38 0 -64.5 10.5t-45.5 28.5t-30 41t-17 47q-29 -30 -65.5 -57t-77.5 -47.5t-85 -32t-88 -11.5q-78 0 -134 44t-98 122 q11 -112 22.5 -190t22.5 -131.5t21 -87.5t17 -58t11.5 -43.5t4.5 -43.5q0 -20 -6 -40t-17.5 -35.5t-29 -25.5t-41.5 -10q-57 0 -81 47.5t-24 129.5l2 1379h172v-541q0 -87 9 -162.5t33.5 -130.5t67 -86.5t109.5 -31.5q38 0 73.5 11.5t67.5 31.5t58.5 46.5t46.5 56.5v806h174 z"/>
<glyph glyph-name="paragraph" horiz-adv-x="1026" unicode="¶" d="M823 1434l-4 -1956h-143l4 1872l-179 -6l-5 -1866h-144l5 1359q-51 4 -102.5 21.5t-93 53t-67.5 90.5t-26 134q0 73 25 129t66 93.5t93 56.5t107 19h464z"/>
<glyph glyph-name="periodcentered" horiz-adv-x="512" unicode="·" d="M376 671q0 -27 -10 -51t-26.5 -42t-38 -28t-45.5 -10t-45.5 10t-38 28t-26 42t-9.5 51q0 28 10 52.5t26.5 42.5t38.5 28.5t46 10.5q25 0 46.5 -10.5t37.5 -28.5t25 -42.5t9 -52.5z"/>
<glyph glyph-name="cedilla" horiz-adv-x="598" unicode="¸" d="M369 -116q63 0 100 -36t37 -99q0 -41 -20 -74t-53 -58.5t-75.5 -44t-87 -31.5t-88 -21.5t-78.5 -13.5l-12 69q52 9 97 23.5t78 34t52 44t19 54.5q0 33 -19 47t-46 14q-23 0 -48 -8t-45 -22l-69 34l59 220h115l-56 -168q29 18 67 27t73 9z"/>
<glyph glyph-name="onesuperior" horiz-adv-x="580" unicode="¹" d="M155 674q31 0 51 12t31 32t15 47.5t4 59.5v494h-5l-127 -76l-32 58l228 166h51l2 -705q0 -23 -1 -43t-3 -37l104 4v-70h-318v58z"/>
<glyph glyph-name="ordmasculine" horiz-adv-x="858" unicode="º" d="M434 1467q71 0 130.5 -24.5t103 -68.5t68.5 -105.5t25 -135.5q0 -78 -24.5 -143t-68.5 -112t-105 -73t-134 -26q-71 0 -131.5 24.5t-104.5 68t-69.5 103.5t-25.5 132q0 76 25.5 142t70.5 114.5t106.5 76t133.5 27.5zM425 1398q-38 0 -73.5 -21t-58 -55t-34.5 -79.5 t-12 -98.5q0 -58 11.5 -111t35 -93.5t59 -64.5t84.5 -24q45 0 78.5 19.5t56.5 53.5t34.5 79.5t11.5 97.5q0 58 -11 112t-34 95t-58 65.5t-90 24.5z"/>
<glyph glyph-name="guillemotright" horiz-adv-x="1083" unicode="»" d="M584 562v-6l-406 -399l-65 61l248 332v4l-244 336l66 61zM1020 568v-8l-561 -575l-63 65l403 518v4l-399 486l65 65z"/>
<glyph glyph-name="onequarter" horiz-adv-x="1563" unicode="¼" d="M1278 1402l-969 -1435l-77 53l956 1447zM156 674q31 0 51 12t31 32t15 47.5t4 59.5v494h-5l-127 -76l-32 58l228 166h51l2 -705q0 -23 -1 -43t-3 -37l104 4v-70h-318v58zM1009 296l250 -4v351h-2zM1460 0h-301v59q31 1 51 11.5t31 28t15 42t4 54.5v20h-347v61l408 566h54 v-553h116v-74h-115v-149l84 4v-70z"/>
<glyph glyph-name="onehalf" horiz-adv-x="1642" unicode="½" d="M1276 1402l-969 -1435l-77 53l956 1447zM154 674q31 0 51 12t31 32t15 47.5t4 59.5v494h-5l-127 -76l-32 58l228 166h51l2 -705q0 -23 -1 -43t-3 -37l104 4v-70h-318v58zM1140 684q19 -17 19 -47q0 -9 -3 -19.5t-10.5 -19.5t-19 -15t-28.5 -6q-26 0 -42 19t-16 47 q0 30 16.5 64.5t48.5 64t79.5 49t109.5 19.5q48 0 92 -13t78.5 -40t55 -68t20.5 -98q0 -30 -8 -62.5t-33.5 -70.5t-73 -83.5t-125.5 -102.5q-137 -100 -162 -187l173 -4q21 -1 41 -1.5t37 -0.5q27 0 49 3t37 12t23.5 25.5t8.5 43.5h43v-193h-524q0 64 19.5 116.5t52.5 98.5 t76.5 86.5t91.5 79.5q43 35 68.5 68.5t39.5 64t18.5 57.5t4.5 48q0 66 -33 106.5t-96 40.5q-25 0 -46.5 -7t-38.5 -18t-28 -26t-15 -31z"/>
<glyph glyph-name="threequarters" horiz-adv-x="1649" unicode="¾" d="M1396 1402l-969 -1435l-77 53l956 1447zM72 808q0 32 17.5 53.5t49.5 21.5q16 0 27.5 -6t19 -15.5t10.5 -21.5t3 -23t-4.5 -23t-11.5 -21q3 -21 15 -35.5t30 -24t40 -14t45 -4.5q40 0 70 15t49.5 39.5t29.5 55t10 62.5q0 25 -6 55.5t-23.5 58t-53.5 45.5t-85 18 q-26 0 -57 -2v65h24q59 0 93 17t51 41t21.5 49t4.5 42q0 25 -6.5 50.5t-21.5 46t-39.5 33.5t-60.5 13q-53 0 -83.5 -26t-36.5 -56q18 -18 18 -45q0 -9 -3 -19.5t-10.5 -19.5t-19 -15t-28.5 -6q-27 0 -42 20.5t-15 46.5q0 28 15.5 60.5t45.5 61t75.5 47.5t105.5 19 q53 0 96.5 -14t74 -40t47.5 -63t17 -82q0 -26 -11 -53.5t-32.5 -52.5t-54 -45t-75.5 -31v-2q53 -5 93 -24t67 -48t40.5 -66.5t13.5 -78.5q0 -50 -19.5 -94t-56 -77t-90 -52t-120.5 -19q-62 0 -109 16t-79 42.5t-48.5 59t-16.5 65.5zM1131 296l250 -4v351h-2zM1582 0h-301v59 q31 1 51 11.5t31 28t15 42t4 54.5v20h-347v61l408 566h54v-553h116v-74h-115v-149l84 4v-70z"/>
<glyph glyph-name="questiondown" horiz-adv-x="956" unicode="¿" d="M378.036 936.006q0 24.998 7.99902 46.9971q8 21.998 22.499 38.4971t34.4971 25.998q19.999 9.5 43.998 9.5q20.998 0 40.9971 -8q19.999 -7.99902 35.498 -23.998t24.998 -37.998q9.5 -21.998 9.5 -50.9961q0 -24.999 -9.5 -46.998q-9.49902 -21.998 -24.998 -38.4971 t-35.498 -25.999q-19.999 -9.49902 -40.9971 -9.49902q-22.999 0 -42.998 9.49902q-19.998 9.5 -34.4971 25.999t-22.999 38.4971q-8.49902 21.999 -8.49902 46.998zM737.014 -217.924q-10.999 17.998 -16.999 37.9971q-5.99902 19.999 -5.99902 41.998 q0 12.999 5.49902 28.998q5.5 15.999 16.499 29.498q11 13.499 28.998 21.999q17.999 8.49902 42.998 7.49902q43.9971 -2 65.4961 -32.498q21.498 -30.498 21.498 -74.4951q0 -44.9971 -28.498 -95.4941t-81.9951 -92.4941q-53.4971 -41.998 -129.992 -69.9961 t-173.489 -27.998q-117.992 0 -198.987 31.998t-128.992 82.9941q-47.9971 50.9971 -67.9961 114.993q-15.999 52.9971 -16.999 105.994q0 10.999 1 21.998q4 68.9961 39.4971 127.992q35.498 58.9971 86.4951 109.993q50.9971 50.9971 108.993 95.4941 q57.9971 44.498 107.493 83.4951q49.4971 38.998 81.9951 74.9961q32.498 35.9971 32.498 69.9951q0 11.999 -4.49902 24.499q-4.5 12.499 -14.5 21.998q-9.99902 9.5 -26.498 15.499q-16.499 6 -40.4971 6q-13.999 0 -35.498 -3.5t-40.498 -11.499l-23.998 71.9951 q31.998 18.999 77.4951 27.999q45.4971 8.99902 83.4951 8.99902q29.998 0 59.4961 -7.5q29.498 -7.49902 52.4971 -23.498q22.998 -15.999 37.498 -41.9971q14.499 -25.999 14.499 -63.9961q0 -45.9971 -28.999 -86.4951q-28.998 -40.4971 -72.9951 -79.9951 q-43.9971 -39.4971 -95.4941 -81.9951q-51.4971 -42.4971 -96.4941 -92.9941t-75.4951 -111.993t-33.498 -139.491v-9q1 -49.9971 10.999 -95.9941q11.999 -49.9971 40.498 -86.9941q28.498 -36.998 77.4951 -58.4971q48.9971 -21.498 120.992 -21.498 q43.9971 0 83.4951 13.499q39.4971 13.499 69.4961 34.998q29.998 21.498 48.9971 46.9971q18.998 25.498 22.998 49.4971z"/>
<glyph glyph-name="Agrave" horiz-adv-x="1282" unicode="À" d="M510 942q-47 -132 -82.5 -232.5t-63.5 -179.5h474l-146 392l-92 252h-4zM262 223q-8 -24 -14 -43t-12 -35t-12 -31t-13 -32l160 8v-90h-383v68q46 0 75 18.5t49 52.5t36.5 81t37.5 104l422 1149h49l457 -1166q9 -21 18.5 -50.5t18 -60.5t13 -61t3.5 -53l140 8v-90h-469 v68q57 1 84 21t34 49t0 62t-18 62l-72 192l-533 -12q-22 -63 -39 -115.5t-32 -103.5zM336 1739q-35 21 -49 42t-17 39q-1 7 -1 13q0 11 3 19q5 14 10 20q3 4 14 12q10 8 28 12q6 1 13 2q13 0 29 -4q24 -6 54 -32l258 -246l-45 -60z"/>
<glyph glyph-name="Aacute" horiz-adv-x="1282" unicode="Á" d="M510 942q-47 -132 -82.5 -232.5t-63.5 -179.5h474l-146 392l-92 252h-4zM262 223q-8 -24 -14 -43t-12 -35t-12 -31t-13 -32l160 8v-90h-383v68q46 0 75 18.5t49 52.5t36.5 81t37.5 104l422 1149h49l457 -1166q9 -21 18.5 -50.5t18 -60.5t13 -61t3.5 -53l140 8v-90h-469 v68q57 1 84 21t34 49t0 62t-18 62l-72 192l-533 -12q-22 -63 -39 -115.5t-32 -103.5zM630 1556l-45 60l258 246q30 26 54 32q15 4 29 4q7 0 13 -2q18 -4 28.5 -12t13.5 -12q5 -6 10 -20q3 -8 3 -19q0 -6 -1 -13q-3 -18 -17 -39t-49 -42z"/>
<glyph glyph-name="Acircumflex" horiz-adv-x="1282" unicode="Â" d="M510 942q-47 -132 -82.5 -232.5t-63.5 -179.5h474l-146 392l-92 252h-4zM262 223q-8 -24 -14 -43t-12 -35t-12 -31t-13 -32l160 8v-90h-383v68q46 0 75 18.5t49 52.5t36.5 81t37.5 104l422 1149h49l457 -1166q9 -21 18.5 -50.5t18 -60.5t13 -61t3.5 -53l140 8v-90h-469 v68q57 1 84 21t34 49t0 62t-18 62l-72 192l-533 -12q-22 -63 -39 -115.5t-32 -103.5zM634 1907h5l376 -289l-45 -70l-340 181h-4l-348 -179l-41 66z"/>
<glyph glyph-name="Atilde" horiz-adv-x="1282" unicode="Ã" d="M510 942q-47 -132 -82.5 -232.5t-63.5 -179.5h474l-146 392l-92 252h-4zM262 223q-8 -24 -14 -43t-12 -35t-12 -31t-13 -32l160 8v-90h-383v68q46 0 75 18.5t49 52.5t36.5 81t37.5 104l422 1149h49l457 -1166q9 -21 18.5 -50.5t18 -60.5t13 -61t3.5 -53l140 8v-90h-469 v68q57 1 84 21t34 49t0 62t-18 62l-72 192l-533 -12q-22 -63 -39 -115.5t-32 -103.5zM448 1737q-44 0 -78.5 -33t-72.5 -90l-70 39q18 45 44.5 83t57 66t64 44.5t66.5 17.5q40 0 72.5 -10.5t59.5 -26.5t50.5 -35t46.5 -35t46.5 -26.5t51.5 -10.5q27 0 51 11t44.5 29t38 42 t32.5 51l66 -32q-22 -63 -50 -107t-60 -71t-66 -39.5t-68 -12.5q-40 0 -72.5 11t-60.5 27t-52.5 35t-48 35t-46 27t-46.5 11z"/>
<glyph glyph-name="Adieresis" horiz-adv-x="1282" unicode="Ä" d="M510 942q-47 -132 -82.5 -232.5t-63.5 -179.5h474l-146 392l-92 252h-4zM262 223q-8 -24 -14 -43t-12 -35t-12 -31t-13 -32l160 8v-90h-383v68q46 0 75 18.5t49 52.5t36.5 81t37.5 104l422 1149h49l457 -1166q9 -21 18.5 -50.5t18 -60.5t13 -61t3.5 -53l140 8v-90h-469 v68q57 1 84 21t34 49t0 62t-18 62l-72 192l-533 -12q-22 -63 -39 -115.5t-32 -103.5zM564 1718q0 -27 -9 -50.5t-24.5 -41t-36 -27.5t-42.5 -10q-23 0 -43 10t-35 27.5t-24 41t-9 50.5t9 51t25 42t36 28.5t43 10.5t43 -10.5t35 -28.5t23.5 -42t8.5 -51zM932 1718 q0 -27 -9 -50.5t-24.5 -41t-36 -27.5t-42.5 -10q-23 0 -43 10t-35 27.5t-24 41t-9 50.5t9 51t25 42t36 28.5t43 10.5t43 -10.5t35 -28.5t23.5 -42t8.5 -51z"/>
<glyph glyph-name="Aring" horiz-adv-x="1286" unicode="Å" d="M512 942q-47 -132 -82.5 -232.5t-63.5 -179.5h474l-146 392l-92 252h-4zM264 223q-8 -24 -14 -43t-12 -35t-12 -31t-13 -32l160 8v-90h-383v68q46 0 75 18.5t49 52.5t36.5 81t37.5 104l422 1149h49l457 -1166q9 -21 18.5 -50.5t18 -60.5t13 -61t3.5 -53l140 8v-90h-469 v68q57 1 84 21t34 49t0 62t-18 62l-72 192l-533 -12q-22 -63 -39 -115.5t-32 -103.5zM629 1917q41 0 82 -12.5t74.5 -39t55 -66.5t23.5 -95q0 -56 -19.5 -100t-52 -75.5t-74 -48t-85.5 -16.5t-86.5 13t-75.5 40.5t-53.5 69.5t-20.5 100q0 52 20.5 94.5t53.5 72.5t74.5 46.5 t83.5 16.5zM622 1847q-48 -3 -77 -42t-29 -105q0 -74 32.5 -119t87.5 -45q21 0 41 9.5t35 27.5t24 43.5t9 58.5q0 85 -32.5 128.5t-83.5 43.5h-7z"/>
<glyph glyph-name="AE" horiz-adv-x="1944" unicode="Æ" d="M924 530v661l-441 -661h441zM1496 530q0 67 -13.5 104t-42.5 54t-74.5 20t-109.5 3l-154 -8q0 -518 -1.5 -556.5t-4.5 -64.5l403 -6q65 0 117.5 17t89 55t56.5 99.5t20 151.5h70l-12 -399h-1057v74h16q40 3 64.5 16t38 36.5t18 58t4.5 81.5v187l-499 -11l-241 -360l156 8 v-90h-383v68q41 0 74 18t61 45.5t51 60.5t783 1161l-184 -10v91h1027l9 -359h-67q0 88 -20.5 144t-56 88t-83.5 43.5t-104 11.5h-13l-176 -4q-58 -2 -89.5 -17t-46.5 -44.5t-17.5 -74.5t-2.5 -108v-330h152q64 0 110 5t75.5 24t43 57.5t13.5 106.5h67v-447h-67z"/>
<glyph glyph-name="Ccedilla" horiz-adv-x="1434" unicode="Ç" d="M619 -454q52 9 97.5 25t79.5 37t53.5 47.5t19.5 56.5q0 35 -19.5 50t-46.5 15q-22 0 -46 -7.5t-44 -20.5l-73 34l48 191q-133 19 -242 81.5t-187 158t-120.5 218t-42.5 262.5q0 96 19.5 191t59 180.5t98.5 159t138 127.5t178 84.5t218 30.5q117 0 217 -31t196 -94 l-10 110h111v-475h-74q-11 96 -45.5 171.5t-89 127.5t-128.5 79.5t-163 27.5q-109 0 -204.5 -46.5t-166.5 -132t-112 -207.5t-41 -272q0 -145 43 -264.5t117.5 -205.5t174.5 -133.5t214 -47.5q67 0 133.5 15t128 45t115.5 74t96 101l53 -43q-65 -90 -138.5 -147.5 t-148.5 -90.5t-147.5 -46.5t-136.5 -14.5l-39 -124q15 9 33 15.5t36.5 10t35.5 5.5t29 2q39 0 68.5 -11.5t49 -31t29.5 -46t10 -57.5q0 -42 -21.5 -76t-57 -61.5t-80 -48.5t-91.5 -36t-92 -25t-80 -15z"/>
<glyph glyph-name="Egrave" horiz-adv-x="1274" unicode="È" d="M433 236q0 -57 -1.5 -95.5t-5.5 -64.5l392 6q67 1 121 16.5t92.5 52t59.5 97t21 151.5h70l-12 -399h-1057v68q49 1 77.5 15.5t42.5 39.5t17.5 59.5t3.5 76.5v60v885q0 42 1.5 79.5t5.5 68.5l-148 -9v91h985l10 -359h-67q0 88 -20.5 144t-56 88t-83.5 43.5t-104 11.5 l-189 -3q-57 -3 -88.5 -18t-46.5 -44.5t-17.5 -74.5t-2.5 -108v-330h384l-15 177h91v-431h-67q0 60 -10.5 95.5t-33 55t-57 25.5t-83.5 6h-29t-180 -7v-469zM410 1739q-35 21 -49 42t-17 39q-1 7 -1 13q0 11 3 19q5 14 10 20q3 4 14 12q10 8 28 12q6 1 13 2q13 0 29 -4 q24 -6 54 -32l258 -246l-45 -60z"/>
<glyph glyph-name="Eacute" horiz-adv-x="1274" unicode="É" d="M433 236q0 -57 -1.5 -95.5t-5.5 -64.5l392 6q67 1 121 16.5t92.5 52t59.5 97t21 151.5h70l-12 -399h-1057v68q49 1 77.5 15.5t42.5 39.5t17.5 59.5t3.5 76.5v60v885q0 42 1.5 79.5t5.5 68.5l-148 -9v91h985l10 -359h-67q0 88 -20.5 144t-56 88t-83.5 43.5t-104 11.5 l-189 -3q-57 -3 -88.5 -18t-46.5 -44.5t-17.5 -74.5t-2.5 -108v-330h384l-15 177h91v-431h-67q0 60 -10.5 95.5t-33 55t-57 25.5t-83.5 6h-29t-180 -7v-469zM592 1556l-45 60l258 246q30 26 54 32q15 4 29 4q7 0 13 -2q18 -4 28.5 -12t13.5 -12q5 -6 10 -20q3 -8 3 -19 q0 -6 -1 -13q-3 -18 -17 -39t-49 -42z"/>
<glyph glyph-name="Ecircumflex" horiz-adv-x="1274" unicode="Ê" d="M433 236q0 -57 -1.5 -95.5t-5.5 -64.5l392 6q67 1 121 16.5t92.5 52t59.5 97t21 151.5h70l-12 -399h-1057v68q49 1 77.5 15.5t42.5 39.5t17.5 59.5t3.5 76.5v60v885q0 42 1.5 79.5t5.5 68.5l-148 -9v91h985l10 -359h-67q0 88 -20.5 144t-56 88t-83.5 43.5t-104 11.5 l-189 -3q-57 -3 -88.5 -18t-46.5 -44.5t-17.5 -74.5t-2.5 -108v-330h384l-15 177h91v-431h-67q0 60 -10.5 95.5t-33 55t-57 25.5t-83.5 6h-29t-180 -7v-469zM678 1907h5l376 -289l-45 -70l-340 181h-4l-348 -179l-41 66z"/>
<glyph glyph-name="Edieresis" horiz-adv-x="1274" unicode="Ë" d="M433 236q0 -57 -1.5 -95.5t-5.5 -64.5l392 6q67 1 121 16.5t92.5 52t59.5 97t21 151.5h70l-12 -399h-1057v68q49 1 77.5 15.5t42.5 39.5t17.5 59.5t3.5 76.5v60v885q0 42 1.5 79.5t5.5 68.5l-148 -9v91h985l10 -359h-67q0 88 -20.5 144t-56 88t-83.5 43.5t-104 11.5 l-189 -3q-57 -3 -88.5 -18t-46.5 -44.5t-17.5 -74.5t-2.5 -108v-330h384l-15 177h91v-431h-67q0 60 -10.5 95.5t-33 55t-57 25.5t-83.5 6h-29t-180 -7v-469zM598 1718q0 -27 -9 -50.5t-24.5 -41t-36 -27.5t-42.5 -10q-23 0 -43 10t-35 27.5t-24 41t-9 50.5t9 51t25 42 t36 28.5t43 10.5t43 -10.5t35 -28.5t23.5 -42t8.5 -51zM966 1718q0 -27 -9 -50.5t-24.5 -41t-36 -27.5t-42.5 -10q-23 0 -43 10t-35 27.5t-24 41t-9 50.5t9 51t25 42t36 28.5t43 10.5t43 -10.5t35 -28.5t23.5 -42t8.5 -51z"/>
<glyph glyph-name="Igrave" horiz-adv-x="684" unicode="Ì" d="M253 1204q0 42 1.5 79.5t5.5 68.5l-148 -9v91h461v-68q-58 -2 -87 -21.5t-41 -52.5t-12.5 -78t-0.5 -100v-870q0 -56 -1.5 -96t-5.5 -66l148 8v-90h-461v68q58 2 87 21t41 52t12.5 78.5t0.5 99.5v885zM102 1739q-35 21 -49 42t-17 39q-1 7 -1 13q0 11 3 19q5 14 10 20 q3 4 14 12q10 8 28 12q6 1 13 2q13 0 29 -4q24 -6 54 -32l258 -246l-45 -60z"/>
<glyph glyph-name="Iacute" horiz-adv-x="684" unicode="Í" d="M254 1204q0 42 1.5 79.5t5.5 68.5l-148 -9v91h461v-68q-58 -2 -87 -21.5t-41 -52.5t-12.5 -78t-0.5 -100v-870q0 -56 -1.5 -96t-5.5 -66l148 8v-90h-461v68q58 2 87 21t41 52t12.5 78.5t0.5 99.5v885zM246 1556l-45 60l258 246q30 26 54 32q15 4 29 4q7 0 13 -2 q18 -4 28.5 -12t13.5 -12q5 -6 10 -20q3 -8 3 -19q0 -6 -1 -13q-3 -18 -17 -39t-49 -42z"/>
<glyph glyph-name="Icircumflex" horiz-adv-x="686" unicode="Î" d="M253 1204q0 42 1.5 79.5t5.5 68.5l-148 -9v91h461v-68q-58 -2 -87 -21.5t-41 -52.5t-12.5 -78t-0.5 -100v-870q0 -56 -1.5 -96t-5.5 -66l148 8v-90h-461v68q58 2 87 21t41 52t12.5 78.5t0.5 99.5v885zM359 1907h4l356 -289l-45 -70l-319 181h-4l-328 -179l-41 66z"/>
<glyph glyph-name="Idieresis" horiz-adv-x="684" unicode="Ï" d="M309 1714q0 -26 -9.5 -49.5t-25 -41.5t-35.5 -27.5t-42 -9.5t-42.5 9.5t-35.5 27.5t-24 41.5t-9 49.5q0 28 9.5 52t24.5 42t35.5 28t43.5 10t43 -10t35 -28t23.5 -42t8.5 -52zM635 1714q0 -26 -9.5 -49.5t-25 -41.5t-35.5 -27.5t-42 -9.5t-42.5 9.5t-35.5 27.5t-24 41.5 t-9 49.5q0 28 9.5 52t24.5 42t35.5 28t43.5 10t43 -10t35 -28t23.5 -42t8.5 -52zM253 1204q0 42 1.5 79.5t5.5 68.5l-148 -9v91h461v-68q-58 -2 -87 -21.5t-41 -52.5t-12.5 -78t-0.5 -100v-870q0 -56 -1.5 -96t-5.5 -66l148 8v-90h-461v68q58 2 87 21t41 52t12.5 78.5 t0.5 99.5v885z"/>
<glyph glyph-name="Eth" horiz-adv-x="1528" unicode="Ð" d="M684 772v-98l-249 -4v-428q0 -57 -1.5 -95.5t-5.5 -64.5q45 -2 84 -3t68 -1h68q132 0 240 49t184.5 135.5t118.5 204.5t42 256q0 145 -39.5 262.5t-120.5 201t-204.5 128.5t-292.5 45q-50 0 -78 -13t-42 -37.5t-17.5 -59t-3.5 -76.5v-402h249zM39 772h217v432 q0 42 1.5 79.5t5.5 68.5l-148 -9v91l483 2q186 0 339.5 -43t264 -132t171.5 -225t61 -321q0 -94 -22 -183.5t-66 -169t-109.5 -146t-152 -114.5t-194.5 -75t-236 -27h-539v68q49 1 77.5 15.5t42.5 39.5t17.5 59.5t3.5 76.5v409l-217 -2v106z"/>
<glyph glyph-name="Ntilde" horiz-adv-x="1563" unicode="Ñ" d="M1332 -33h-99l-889 1195h-3l7 -877q0 -53 -0.5 -103.5t-3.5 -99.5l148 8v-90h-375v68q47 0 74 16.5t40.5 40.5t17 52t3.5 52l2 1123l-137 -9v91h244l872 -1167h2l2 937q0 86 6 148l-147 -9v91h377v-68q-58 -2 -86.5 -21.5t-40.5 -52.5q-11 -32 -11 -74l1 -104zM619 1737 q-44 0 -78.5 -33t-72.5 -90l-70 39q18 45 44.5 83t57 66t64 44.5t66.5 17.5q40 0 72.5 -10.5t59.5 -26.5t50.5 -35t46.5 -35t46.5 -26.5t51.5 -10.5q27 0 51 11t44.5 29t38 42t32.5 51l66 -32q-22 -63 -50 -107t-60 -71t-66 -39.5t-68 -12.5q-40 0 -72.5 11t-60.5 27 t-52.5 35t-48 35t-46 27t-46.5 11z"/>
<glyph glyph-name="Ograve" d="M94 717q0 86 19 175t58 172.5t98 156.5t138 128t179 86.5t221 31.5q125 0 227.5 -32t183.5 -86.5t140.5 -128t99 -157t59 -172.5t19.5 -174t-19.5 -173.5t-58 -172t-97.5 -157t-138.5 -128.5t-179 -87t-220.5 -32q-130 0 -234.5 31t-185.5 84.5t-139.5 126t-96 155.5 t-55.5 173.5t-18 179.5zM295 754q0 -76 14 -157.5t42.5 -159.5t72 -148.5t103 -123t134 -83.5t166.5 -31q84 0 154 25.5t126 70t98 105t70 130t42.5 148.5t14.5 148q0 74 -16 164t-47 168.5t-76 147t-104 119t-131.5 79.5t-157.5 29q-126 0 -221 -56t-158 -146t-94.5 -202.5 t-31.5 -226.5zM606 1739q-35 21 -49 42t-17 39q-1 7 -1 13q0 11 3 19q5 14 10 20q3 4 14 12q10 8 28 12q6 1 13 2q13 0 29 -4q24 -6 54 -32l258 -246l-45 -60z" unicode="Ò"/>
<glyph glyph-name="Oacute" d="M94 717q0 86 19 175t58 172.5t98 156.5t138 128t179 86.5t221 31.5q125 0 227.5 -32t183.5 -86.5t140.5 -128t99 -157t59 -172.5t19.5 -174t-19.5 -173.5t-58 -172t-97.5 -157t-138.5 -128.5t-179 -87t-220.5 -32q-130 0 -234.5 31t-185.5 84.5t-139.5 126t-96 155.5 t-55.5 173.5t-18 179.5zM295 754q0 -76 14 -157.5t42.5 -159.5t72 -148.5t103 -123t134 -83.5t166.5 -31q84 0 154 25.5t126 70t98 105t70 130t42.5 148.5t14.5 148q0 74 -16 164t-47 168.5t-76 147t-104 119t-131.5 79.5t-157.5 29q-126 0 -221 -56t-158 -146t-94.5 -202.5 t-31.5 -226.5zM687 1556l-45 60l258 246q30 26 54 32q15 4 29 4q7 0 13 -2q18 -4 28.5 -12t13.5 -12q5 -6 10 -20q3 -8 3 -19q0 -6 -1 -13q-3 -18 -17 -39t-49 -42z" unicode="Ó"/>
<glyph glyph-name="Ocircumflex" d="M94 717q0 86 19 175t58 172.5t98 156.5t138 128t179 86.5t221 31.5q125 0 227.5 -32t183.5 -86.5t140.5 -128t99 -157t59 -172.5t19.5 -174t-19.5 -173.5t-58 -172t-97.5 -157t-138.5 -128.5t-179 -87t-220.5 -32q-130 0 -234.5 31t-185.5 84.5t-139.5 126t-96 155.5 t-55.5 173.5t-18 179.5zM295 754q0 -76 14 -157.5t42.5 -159.5t72 -148.5t103 -123t134 -83.5t166.5 -31q84 0 154 25.5t126 70t98 105t70 130t42.5 148.5t14.5 148q0 74 -16 164t-47 168.5t-76 147t-104 119t-131.5 79.5t-157.5 29q-126 0 -221 -56t-158 -146t-94.5 -202.5 t-31.5 -226.5zM829 1907h5l376 -289l-45 -70l-340 181h-4l-348 -179l-41 66z" unicode="Ô"/>
<glyph glyph-name="Otilde" d="M94 717q0 86 19 175t58 172.5t98 156.5t138 128t179 86.5t221 31.5q125 0 227.5 -32t183.5 -86.5t140.5 -128t99 -157t59 -172.5t19.5 -174t-19.5 -173.5t-58 -172t-97.5 -157t-138.5 -128.5t-179 -87t-220.5 -32q-130 0 -234.5 31t-185.5 84.5t-139.5 126t-96 155.5 t-55.5 173.5t-18 179.5zM295 754q0 -76 14 -157.5t42.5 -159.5t72 -148.5t103 -123t134 -83.5t166.5 -31q84 0 154 25.5t126 70t98 105t70 130t42.5 148.5t14.5 148q0 74 -16 164t-47 168.5t-76 147t-104 119t-131.5 79.5t-157.5 29q-126 0 -221 -56t-158 -146t-94.5 -202.5 t-31.5 -226.5zM653 1737q-44 0 -78.5 -33t-72.5 -90l-70 39q18 45 44.5 83t57 66t64 44.5t66.5 17.5q40 0 72.5 -10.5t59.5 -26.5t50.5 -35t46.5 -35t46.5 -26.5t51.5 -10.5q27 0 51 11t44.5 29t38 42t32.5 51l66 -32q-22 -63 -50 -107t-60 -71t-66 -39.5t-68 -12.5 q-40 0 -72.5 11t-60.5 27t-52.5 35t-48 35t-46 27t-46.5 11z" unicode="Õ"/>
<glyph glyph-name="Odieresis" d="M94 717q0 86 19 175t58 172.5t98 156.5t138 128t179 86.5t221 31.5q125 0 227.5 -32t183.5 -86.5t140.5 -128t99 -157t59 -172.5t19.5 -174t-19.5 -173.5t-58 -172t-97.5 -157t-138.5 -128.5t-179 -87t-220.5 -32q-130 0 -234.5 31t-185.5 84.5t-139.5 126t-96 155.5 t-55.5 173.5t-18 179.5zM295 754q0 -76 14 -157.5t42.5 -159.5t72 -148.5t103 -123t134 -83.5t166.5 -31q84 0 154 25.5t126 70t98 105t70 130t42.5 148.5t14.5 148q0 74 -16 164t-47 168.5t-76 147t-104 119t-131.5 79.5t-157.5 29q-126 0 -221 -56t-158 -146t-94.5 -202.5 t-31.5 -226.5zM740 1718q0 -27 -9 -50.5t-24.5 -41t-36 -27.5t-42.5 -10q-23 0 -43 10t-35 27.5t-24 41t-9 50.5t9 51t25 42t36 28.5t43 10.5t43 -10.5t35 -28.5t23.5 -42t8.5 -51zM1108 1718q0 -27 -9 -50.5t-24.5 -41t-36 -27.5t-42.5 -10q-23 0 -43 10t-35 27.5t-24 41 t-9 50.5t9 51t25 42t36 28.5t43 10.5t43 -10.5t35 -28.5t23.5 -42t8.5 -51z" unicode="Ö"/>
<glyph glyph-name="multiply" horiz-adv-x="1130" unicode="×" d="M111 279l363 356l-359 356l95 92l357 -356l374 367l82 -88l-369 -365l369 -367l-92 -92l-370 367l-362 -359z"/>
<glyph glyph-name="Oslash" d="M1189 1161q-4 5 -7 10l-614 -1041q42 -28 90 -48q75 -31 167 -31q84 0 154 25.5t126 70t98 105t70.5 130t42.5 145.5t14 151q0 86 -16.5 172t-47.5 164.5t-77 146.5zM293 754q0 -76 14 -157.5t42.5 -159.5t71.5 -149q26 -42 57 -77l614 1060l-8 7q-59 50 -131 78.5 t-155 28.5q-126 0 -221 -56t-158 -146t-94.5 -202.5t-31.5 -226.5zM92 717q0 86 19 175t58 172.5t98 156.5t138 128t179 86.5t221 31.5q125 0 227 -32q67 -21 125 -52l94 163l111 -69l-97 -165q50 -41 91 -92q60 -73 99.5 -156.5t59 -172.5t19.5 -174t-19.5 -173.5t-58 -172 t-97.5 -157t-138.5 -128.5t-179 -87t-220.5 -32q-130 0 -235 31q-41 12 -79 28l-112 -190l-98 62l106 183q-1 1 -2 1q-81 54 -139.5 126.5t-96 156t-55.5 173.5t-18 179z" unicode="Ø"/>
<glyph glyph-name="Ugrave" horiz-adv-x="1540" unicode="Ù" d="M1332 639q-1 -134 -29.5 -255.5t-93 -214t-169.5 -147.5t-259 -55q-164 0 -275 43t-178.5 132.5t-96.5 227.5t-29 328v416q0 27 0.5 60t2 66t2.5 62.5t3 49.5l-147 -6v88h460v-68q-52 0 -80.5 -17.5t-42 -42.5t-16 -53t-2.5 -49v-516q0 -76 6 -150.5t22.5 -141.5t46 -124 t76.5 -99t114 -65.5t159 -23.5q111 0 190.5 40t131 112.5t76 172.5t26.5 220l8 575q0 86 6 148l-147 -9v91h381v-68q-58 -2 -87.5 -21.5t-41.5 -52.5t-12.5 -78t-0.5 -100zM574 1739q-35 21 -49 42t-17 39q-1 7 -1 13q0 11 3 19q5 14 10 20q3 4 14 12q10 8 28 12q6 1 13 2 q13 0 29 -4q24 -6 54 -32l258 -246l-45 -60z"/>
<glyph glyph-name="Uacute" horiz-adv-x="1540" unicode="Ú" d="M1332 639q-1 -134 -29.5 -255.5t-93 -214t-169.5 -147.5t-259 -55q-164 0 -275 43t-178.5 132.5t-96.5 227.5t-29 328v416q0 27 0.5 60t2 66t2.5 62.5t3 49.5l-147 -6v88h460v-68q-52 0 -80.5 -17.5t-42 -42.5t-16 -53t-2.5 -49v-516q0 -76 6 -150.5t22.5 -141.5t46 -124 t76.5 -99t114 -65.5t159 -23.5q111 0 190.5 40t131 112.5t76 172.5t26.5 220l8 575q0 86 6 148l-147 -9v91h381v-68q-58 -2 -87.5 -21.5t-41.5 -52.5t-12.5 -78t-0.5 -100zM747 1556l-45 60l258 246q30 26 54 32q15 4 29 4q7 0 13 -2q18 -4 28.5 -12t13.5 -12q5 -6 10 -20 q3 -8 3 -19q0 -6 -1 -13q-3 -18 -17 -39t-49 -42z"/>
<glyph glyph-name="Ucircumflex" horiz-adv-x="1540" unicode="Û" d="M1332 639q-1 -134 -29.5 -255.5t-93 -214t-169.5 -147.5t-259 -55q-164 0 -275 43t-178.5 132.5t-96.5 227.5t-29 328v416q0 27 0.5 60t2 66t2.5 62.5t3 49.5l-147 -6v88h460v-68q-52 0 -80.5 -17.5t-42 -42.5t-16 -53t-2.5 -49v-516q0 -76 6 -150.5t22.5 -141.5t46 -124 t76.5 -99t114 -65.5t159 -23.5q111 0 190.5 40t131 112.5t76 172.5t26.5 220l8 575q0 86 6 148l-147 -9v91h381v-68q-58 -2 -87.5 -21.5t-41.5 -52.5t-12.5 -78t-0.5 -100zM807 1907h5l376 -289l-45 -70l-340 181h-4l-348 -179l-41 66z"/>
<glyph glyph-name="Udieresis" horiz-adv-x="1540" unicode="Ü" d="M1332 639q-1 -134 -29.5 -255.5t-93 -214t-169.5 -147.5t-259 -55q-164 0 -275 43t-178.5 132.5t-96.5 227.5t-29 328v416q0 27 0.5 60t2 66t2.5 62.5t3 49.5l-147 -6v88h460v-68q-52 0 -80.5 -17.5t-42 -42.5t-16 -53t-2.5 -49v-516q0 -76 6 -150.5t22.5 -141.5t46 -124 t76.5 -99t114 -65.5t159 -23.5q111 0 190.5 40t131 112.5t76 172.5t26.5 220l8 575q0 86 6 148l-147 -9v91h381v-68q-58 -2 -87.5 -21.5t-41.5 -52.5t-12.5 -78t-0.5 -100zM735 1718q0 -27 -9 -50.5t-24.5 -41t-36 -27.5t-42.5 -10q-23 0 -43 10t-35 27.5t-24 41t-9 50.5 t9 51t25 42t36 28.5t43 10.5t43 -10.5t35 -28.5t23.5 -42t8.5 -51zM1103 1718q0 -27 -9 -50.5t-24.5 -41t-36 -27.5t-42.5 -10q-23 0 -43 10t-35 27.5t-24 41t-9 50.5t9 51t25 42t36 28.5t43 10.5t43 -10.5t35 -28.5t23.5 -42t8.5 -51z"/>
<glyph glyph-name="Yacute" horiz-adv-x="1298" unicode="Ý" d="M581 553l-355 563q-53 82 -78 137.5t-33 94.5l-127 -5v91h528v-68q-71 0 -108 -16q-38 -16 -48 -46q-5 -13 -4 -29q0 -19 8 -42q14 -41 44 -90q38 -61 72 -115.5t68 -107.5t70.5 -108t80.5 -116h4q229 436 273 516t58 101t29 37l-162 -7v91h418v-68q-51 -3 -91 -20 t-75 -49.5t-67.5 -81t-326.5 -601.5q-1 -98 -1 -234q0 -45 -1 -76q0 -60 1 -60q0 -110 -6 -162l170 8v-90h-481v68q57 2 86 22t41 53.5t12 78.5v97zM656 1556l-45 60l258 246q30 26 54 32q15 4 29 4q7 0 13 -2q18 -4 28.5 -12t13.5 -12q5 -6 10 -20q3 -8 3 -19q0 -6 -1 -13 q-3 -18 -17 -39t-49 -42z"/>
<glyph glyph-name="Thorn" horiz-adv-x="1221" unicode="Þ" d="M487 1107q-27 -1 -54 -3v-690q22 -3 40 -4q22 -2 45 -2q115 0 200 25.5t140.5 73t83 115t27.5 150.5q0 165 -103 250.5t-311 85.5q-38 0 -68 -1zM254 1204q0 42 1.5 79.5t5.5 68.5l-148 -9v91h461v-68q-50 -2 -78 -16t-42 -39.5t-18 -60.5q-3 -30 -3 -66l110 2 q303 0 464.5 -100t161.5 -309q0 -54 -13.5 -108t-45.5 -104t-85 -92.5t-130 -74.5t-175 -50t-259 -18h-28v-86q0 -57 -1.5 -96.5t-5.5 -65.5l148 8v-90h-461v68q49 1 77.5 15.5t42.5 39.5t17.5 59.5t3.5 76.5v945z"/>
<glyph glyph-name="germandbls" horiz-adv-x="1395" unicode="ß" d="M398 217q0 -41 -1 -72.5t-8 -66.5l129 6v-84h-417v61q46 0 71 18.5t35.5 51.5t12 79t1.5 101l-2 625l-168 -4v92h168v2q0 114 31 211t93 168t154.5 111t214.5 40q38 0 88 -7t103 -26t103.5 -52.5t90.5 -87.5t64.5 -131t24.5 -182q0 -20 -1 -40.5t-5 -50.5q-25 2 -56 3.5 t-65 1.5q-46 0 -92 -6t-83.5 -23t-61 -48t-23.5 -82q0 -46 23 -81.5t61 -64.5t86.5 -54.5t99 -51t99 -54.5t86.5 -64.5t61 -80.5t23 -104q0 -78 -25.5 -135t-71 -94.5t-109.5 -55.5t-142 -18q-23 0 -52.5 4t-61.5 12t-63.5 20.5t-58.5 29.5l6 -49h-98v352h63q4 -64 23 -117 t52 -91.5t79.5 -59.5t106.5 -21q34 0 66.5 10.5t58 31.5t40.5 52t15 72q0 45 -22.5 79t-60 61.5t-85 50.5t-97 47t-97 52t-85 64t-60 83t-22.5 110q0 67 23.5 122t68.5 94t111.5 60t153.5 21h15v22q0 94 -15.5 159t-40.5 108.5t-57.5 68t-66 36.5t-59.5 15t-65 3 q-82 0 -147 -39.5t-99.5 -106.5t-48.5 -164.5t-14 -220.5z"/>
<glyph glyph-name="agrave" horiz-adv-x="1057" unicode="à" d="M132 811q0 51 30 96t84 78.5t128.5 52.5t162.5 19q172 0 253.5 -91t80.5 -289l-2 -460q0 -32 -1.5 -64.5t-6.5 -74.5l145 8v-86h-293q-6 35 -9 61t-5 55q-69 -69 -150.5 -109t-172.5 -40q-77 0 -134.5 18.5t-95.5 51.5t-57 77.5t-19 95.5q0 63 27.5 115t74 92.5t108.5 70 t132 48.5q70 20 142 28q65 8 126 7h15v128q0 53 -6 103t-26.5 91t-64 65t-100.5 24q-33 0 -63 -5.5t-59 -18.5t-52.5 -34t-38.5 -50q15 -17 20.5 -37.5t5.5 -39.5q0 -12 -5 -27.5t-15.5 -29t-27 -22t-44.5 -8.5q-40 0 -63.5 29.5t-23.5 71.5zM694 501q-47 -2 -97.5 -8.5 t-99 -20t-91.5 -34.5t-75 -50t-50 -67q-16 -35 -16 -77v-9q1 -38 14.5 -66.5t35 -47t49.5 -28t60 -9.5q41 0 77 8t68.5 23.5t63 37.5t61.5 51v297zM328 1405q-26 27 -35 50q-3 7 -6 17t-3 21q0 13 3.5 24t13.5 24t25.5 19.5t32 6.5t39 -11.5t45.5 -44.5l172 -276l-57 -47z "/>
<glyph glyph-name="aacute" horiz-adv-x="1057" unicode="á" d="M132 811q0 51 30 96t84 78.5t128.5 52.5t162.5 19q172 0 253.5 -91t80.5 -289l-2 -460q0 -32 -1.5 -64.5t-6.5 -74.5l145 8v-86h-293q-6 35 -9 61t-5 55q-69 -69 -150.5 -109t-172.5 -40q-77 0 -134.5 18.5t-95.5 51.5t-57 77.5t-19 95.5q0 63 27.5 115t74 92.5t108.5 70 t132 48.5q70 20 142 28q65 8 126 7h15v128q0 53 -6 103t-26.5 91t-64 65t-100.5 24q-33 0 -63 -5.5t-59 -18.5t-52.5 -34t-38.5 -50q15 -17 20.5 -37.5t5.5 -39.5q0 -12 -5 -27.5t-15.5 -29t-27 -22t-44.5 -8.5q-40 0 -63.5 29.5t-23.5 71.5zM694 501q-47 -2 -97.5 -8.5 t-99 -20t-91.5 -34.5t-75 -50t-50 -67q-16 -35 -16 -77v-9q1 -38 14.5 -66.5t35 -47t49.5 -28t60 -9.5q41 0 77 8t68.5 23.5t63 37.5t61.5 51v297zM453 1188l-57 47l172 276q23 33 45.5 44.5t39 11.5t32 -6.5t25.5 -19.5t13.5 -24t3.5 -24q0 -11 -3 -21t-6 -17 q-9 -23 -35 -50z"/>
<glyph glyph-name="acircumflex" horiz-adv-x="1057" unicode="â" d="M132 811q0 51 30 96t84 78.5t128.5 52.5t162.5 19q172 0 253.5 -91t80.5 -289l-2 -460q0 -32 -1.5 -64.5t-6.5 -74.5l145 8v-86h-293q-6 35 -9 61t-5 55q-69 -69 -150.5 -109t-172.5 -40q-77 0 -134.5 18.5t-95.5 51.5t-57 77.5t-19 95.5q0 63 27.5 115t74 92.5t108.5 70 t132 48.5q70 20 142 28q65 8 126 7h15v128q0 53 -6 103t-26.5 91t-64 65t-100.5 24q-33 0 -63 -5.5t-59 -18.5t-52.5 -34t-38.5 -50q15 -17 20.5 -37.5t5.5 -39.5q0 -12 -5 -27.5t-15.5 -29t-27 -22t-44.5 -8.5q-40 0 -63.5 29.5t-23.5 71.5zM694 501q-47 -2 -97.5 -8.5 t-99 -20t-91.5 -34.5t-75 -50t-50 -67q-16 -35 -16 -77v-9q1 -38 14.5 -66.5t35 -47t49.5 -28t60 -9.5q41 0 77 8t68.5 23.5t63 37.5t61.5 51v297zM513 1593h4l305 -333l-55 -66l-260 223h-4l-265 -209l-51 60z"/>
<glyph glyph-name="atilde" horiz-adv-x="1057" unicode="ã" d="M132 811q0 51 30 96t84 78.5t128.5 52.5t162.5 19q172 0 253.5 -91t80.5 -289l-2 -460q0 -32 -1.5 -64.5t-6.5 -74.5l145 8v-86h-293q-6 35 -9 61t-5 55q-69 -69 -150.5 -109t-172.5 -40q-77 0 -134.5 18.5t-95.5 51.5t-57 77.5t-19 95.5q0 63 27.5 115t74 92.5t108.5 70 t132 48.5q70 20 142 28q65 8 126 7h15v128q0 53 -6 103t-26.5 91t-64 65t-100.5 24q-33 0 -63 -5.5t-59 -18.5t-52.5 -34t-38.5 -50q15 -17 20.5 -37.5t5.5 -39.5q0 -12 -5 -27.5t-15.5 -29t-27 -22t-44.5 -8.5q-40 0 -63.5 29.5t-23.5 71.5zM694 501q-47 -2 -97.5 -8.5 t-99 -20t-91.5 -34.5t-75 -50t-50 -67q-16 -35 -16 -77v-9q1 -38 14.5 -66.5t35 -47t49.5 -28t60 -9.5q41 0 77 8t68.5 23.5t63 37.5t61.5 51v297zM363 1364q-38 0 -79.5 -20.5t-70.5 -65.5l-61 35q13 36 36.5 67.5t52.5 55.5t60 38t60 15q48 0 84 -17t66 -37.5t58 -37.5 t62 -17q45 0 85 27t64 72l60 -31q-17 -51 -41.5 -87.5t-53 -60.5t-58 -35.5t-56.5 -11.5q-48 0 -85 17.5t-68.5 38t-59 38t-55.5 17.5z"/>
<glyph glyph-name="adieresis" horiz-adv-x="1057" unicode="ä" d="M132 811q0 51 30 96t84 78.5t128.5 52.5t162.5 19q172 0 253.5 -91t80.5 -289l-2 -460q0 -32 -1.5 -64.5t-6.5 -74.5l145 8v-86h-293q-6 35 -9 61t-5 55q-69 -69 -150.5 -109t-172.5 -40q-77 0 -134.5 18.5t-95.5 51.5t-57 77.5t-19 95.5q0 63 27.5 115t74 92.5t108.5 70 t132 48.5q70 20 142 28q65 8 126 7h15v128q0 53 -6 103t-26.5 91t-64 65t-100.5 24q-33 0 -63 -5.5t-59 -18.5t-52.5 -34t-38.5 -50q15 -17 20.5 -37.5t5.5 -39.5q0 -12 -5 -27.5t-15.5 -29t-27 -22t-44.5 -8.5q-40 0 -63.5 29.5t-23.5 71.5zM694 501q-47 -2 -97.5 -8.5 t-99 -20t-91.5 -34.5t-75 -50t-50 -67q-16 -35 -16 -77v-9q1 -38 14.5 -66.5t35 -47t49.5 -28t60 -9.5q41 0 77 8t68.5 23.5t63 37.5t61.5 51v297zM772 1369q0 -25 -8.5 -47t-22.5 -38.5t-32.5 -26t-38.5 -9.5q-21 0 -39.5 9.5t-32.5 26t-22 38.5t-8 47t8.5 48t22.5 39.5 t33 26.5t39 10q22 0 40.5 -10t32 -26.5t21 -39.5t7.5 -48zM430 1369q0 -25 -8.5 -47t-22.5 -38.5t-32.5 -26t-38.5 -9.5q-21 0 -39.5 9.5t-32.5 26t-22 38.5t-8 47t8.5 48t22.5 39.5t33 26.5t39 10q22 0 40.5 -10t32 -26.5t21 -39.5t7.5 -48z"/>
<glyph glyph-name="aring" horiz-adv-x="1057" unicode="å" d="M132 811q0 51 30 96t84 78.5t128.5 52.5t162.5 19q172 0 253.5 -91t80.5 -289l-2 -460q0 -32 -1.5 -64.5t-6.5 -74.5l145 8v-86h-293q-6 35 -9 61t-5 55q-69 -69 -150.5 -109t-172.5 -40q-77 0 -134.5 18.5t-95.5 51.5t-57 77.5t-19 95.5q0 63 27.5 115t74 92.5t108.5 70 t132 48.5q70 20 142 28q65 8 126 7h15v128q0 53 -6 103t-26.5 91t-64 65t-100.5 24q-33 0 -63 -5.5t-59 -18.5t-52.5 -34t-38.5 -50q15 -17 20.5 -37.5t5.5 -39.5q0 -12 -5 -27.5t-15.5 -29t-27 -22t-44.5 -8.5q-40 0 -63.5 29.5t-23.5 71.5zM694 501q-47 -2 -97.5 -8.5 t-99 -20t-91.5 -34.5t-75 -50t-50 -67q-16 -35 -16 -77v-9q1 -38 14.5 -66.5t35 -47t49.5 -28t60 -9.5q41 0 77 8t68.5 23.5t63 37.5t61.5 51v297zM515 1559q36 0 71.5 -11t64 -34t47.5 -60.5t19 -79.5q0 -52 -16.5 -88t-44.5 -63t-63.5 -41.5t-73.5 -14.5t-74.5 11.5 t-65 35.5t-46 60.5t-17.5 87.5q0 44 17.5 80t45.5 62t63.5 40.5t72.5 14.5zM515 1495q-35 0 -63 -31.5t-28 -91.5q0 -29 6.5 -54.5t19 -45t30.5 -30.5t41 -11q38 0 63 32.5t25 88.5q0 66 -24.5 104.5t-69.5 38.5z"/>
<glyph glyph-name="ae" horiz-adv-x="1591" unicode="æ" d="M136 804q0 46 26 91.5t75.5 81.5t119.5 58t159 22q103 0 174.5 -46.5t108.5 -130.5q57 78 140.5 127.5t193.5 49.5q78 0 144 -25t114.5 -79.5t76 -140.5t28.5 -208l-625 -12q-3 -39 -3 -74q0 -108 23 -191.5t64 -140t97 -85.5t122 -29q48 0 88.5 13t75 35.5t64 54 t55.5 67.5l51 -41q-42 -64 -87.5 -108.5t-94 -72.5t-99 -40.5t-102.5 -12.5q-121 0 -215 46t-151 148h-2q-39 -53 -84 -90t-94 -60t-102 -33.5t-108 -10.5q-70 0 -125.5 18t-94 49.5t-59 75.5t-20.5 95q0 64 27 115t73 91t107 68.5t130 47t141.5 27.5t140.5 9v125 q0 55 -5.5 107.5t-26.5 94t-61.5 67t-109.5 25.5q-34 0 -66 -8.5t-59 -24.5t-47.5 -38.5t-31.5 -50.5q14 -13 21 -34t7 -33t-5 -27t-15.5 -28.5t-27.5 -22.5t-41 -9q-38 0 -61.5 26.5t-23.5 71.5zM1125 977q-60 0 -102.5 -24t-70.5 -65t-44 -95t-23 -115h426 q0 54 -6.5 107.5t-26.5 96t-56.5 69t-96.5 26.5zM707 219q-3 21 -6 55.5t-6 73t-5.5 77t-3.5 68.5q-69 -3 -143 -17t-136 -43.5t-102 -77t-40 -116.5q0 -47 16 -77t41 -47.5t54.5 -24.5t55.5 -7q85 0 151.5 36t123.5 100z"/>
<glyph glyph-name="ccedilla" horiz-adv-x="1094" unicode="ç" d="M662 -116q63 0 100 -36t37 -99q0 -41 -20 -74t-53 -58.5t-75.5 -44t-87 -31.5t-88 -21.5t-78.5 -13.5l-12 69q52 9 97 23.5t78 34t52 44t19 54.5q0 33 -19 47t-46 14q-23 0 -48 -8t-45 -22l-69 34l50 188q-30 8 -58 18q-92 36 -161 103.5t-109 165.5t-40 223 q0 71 17.5 140t50.5 131.5t80 116t106.5 92.5t130 61t149.5 22q85 0 155 -21t120 -56t77 -81t27 -95q0 -22 -6.5 -41.5t-18.5 -34.5t-29 -23.5t-41 -8.5q-27 0 -45 9t-29 23t-16 30t-5 30q0 20 6.5 42t24.5 41q-14 36 -41 57.5t-58.5 33.5t-62.5 15.5t-53 3.5 q-70 0 -130.5 -28.5t-104.5 -83.5t-69.5 -137t-25.5 -188q0 -102 25.5 -188.5t71.5 -149t111 -97.5t144 -35q48 0 95 13.5t89 37.5t77.5 56t60.5 69l53 -41q-41 -64 -93.5 -109.5t-110 -75t-116 -43.5t-110.5 -14q-15 0 -30 1l-40 -120q29 18 67 27t73 9z"/>
<glyph glyph-name="egrave" horiz-adv-x="1110" unicode="è" d="M1018 604l-721 -12v-12q0 -111 18 -202q19 -96 60 -164t105.5 -105t154.5 -37q48 0 98 13t96.5 35.5t85.5 54t65 67.5l50 -41q-42 -64 -97.5 -108.5t-115 -72.5t-119.5 -40.5t-112 -12.5q-106 0 -197.5 38t-158.5 109t-105.5 171t-38.5 225q0 108 37 206.5t105 174.5 t163 121t211 45q85 0 160.5 -28t132.5 -84t90 -141.5t33 -199.5zM604 977q-120 0 -198 -70.5t-103 -228.5h522q0 54 -12 107.5t-38.5 96t-68.5 69t-102 26.5zM371 1405q-26 27 -35 50q-3 7 -6 17t-3 21q0 13 3.5 24t13.5 24t25.5 19.5t32 6.5t39 -11.5t45.5 -44.5l172 -276 l-57 -47z"/>
<glyph glyph-name="eacute" horiz-adv-x="1110" unicode="é" d="M1018 604l-721 -12v-12q0 -111 18 -202q19 -96 60 -164t105.5 -105t154.5 -37q48 0 98 13t96.5 35.5t85.5 54t65 67.5l50 -41q-42 -64 -97.5 -108.5t-115 -72.5t-119.5 -40.5t-112 -12.5q-106 0 -197.5 38t-158.5 109t-105.5 171t-38.5 225q0 108 37 206.5t105 174.5 t163 121t211 45q85 0 160.5 -28t132.5 -84t90 -141.5t33 -199.5zM604 977q-120 0 -198 -70.5t-103 -228.5h522q0 54 -12 107.5t-38.5 96t-68.5 69t-102 26.5zM540 1188l-57 47l172 276q23 33 45.5 44.5t39 11.5t32 -6.5t25.5 -19.5t13.5 -24t3.5 -24q0 -11 -3 -21t-6 -17 q-9 -23 -35 -50z"/>
<glyph glyph-name="ecircumflex" horiz-adv-x="1110" unicode="ê" d="M1018 604l-721 -12v-12q0 -111 18 -202q19 -96 60 -164t105.5 -105t154.5 -37q48 0 98 13t96.5 35.5t85.5 54t65 67.5l50 -41q-42 -64 -97.5 -108.5t-115 -72.5t-119.5 -40.5t-112 -12.5q-106 0 -197.5 38t-158.5 109t-105.5 171t-38.5 225q0 108 37 206.5t105 174.5 t163 121t211 45q85 0 160.5 -28t132.5 -84t90 -141.5t33 -199.5zM604 977q-120 0 -198 -70.5t-103 -228.5h522q0 54 -12 107.5t-38.5 96t-68.5 69t-102 26.5zM601 1593h4l305 -333l-55 -66l-260 223h-4l-265 -209l-51 60z"/>
<glyph glyph-name="edieresis" horiz-adv-x="1110" unicode="ë" d="M1018 604l-721 -12v-12q0 -111 18 -202q19 -96 60 -164t105.5 -105t154.5 -37q48 0 98 13t96.5 35.5t85.5 54t65 67.5l50 -41q-42 -64 -97.5 -108.5t-115 -72.5t-119.5 -40.5t-112 -12.5q-106 0 -197.5 38t-158.5 109t-105.5 171t-38.5 225q0 108 37 206.5t105 174.5 t163 121t211 45q85 0 160.5 -28t132.5 -84t90 -141.5t33 -199.5zM604 977q-120 0 -198 -70.5t-103 -228.5h522q0 54 -12 107.5t-38.5 96t-68.5 69t-102 26.5zM854 1369q0 -25 -8.5 -47t-22.5 -38.5t-32.5 -26t-38.5 -9.5q-21 0 -39.5 9.5t-32.5 26t-22 38.5t-8 47t8.5 48 t22.5 39.5t33 26.5t39 10q22 0 40.5 -10t32 -26.5t21 -39.5t7.5 -48zM512 1369q0 -25 -8.5 -47t-22.5 -38.5t-32.5 -26t-38.5 -9.5q-21 0 -39.5 9.5t-32.5 26t-22 38.5t-8 47t8.5 48t22.5 39.5t33 26.5t39 10q22 0 40.5 -10t32 -26.5t21 -39.5t7.5 -48z"/>
<glyph glyph-name="igrave" horiz-adv-x="575" unicode="ì" d="M210 778q0 32 1.5 62t6.5 71l-145 -8v86q67 0 111 4.5t72 12.5t43.5 17.5t27.5 20.5h59v-827q0 -41 -1 -72.5t-7 -66.5l129 6v-84h-418v61q46 0 71 18.5t36 51.5t12.5 79t1.5 101v467zM53 1405q-26 27 -35 50q-3 7 -6 17t-3 21q0 13 3.5 24t13.5 24t25.5 19.5t32 6.5 t39 -11.5t45.5 -44.5l172 -276l-57 -47z"/>
<glyph glyph-name="iacute" horiz-adv-x="578" unicode="í" d="M212 778q0 32 1.5 62t6.5 71l-145 -8v86q67 0 111 4.5t72 12.5t43.5 17.5t27.5 20.5h59v-827q0 -41 -1 -72.5t-7 -66.5l129 6v-84h-418v61q46 0 71 18.5t36 51.5t12.5 79t1.5 101v467zM263 1188l-57 47l172 276q23 33 45.5 44.5t39 11.5t32 -6.5t25.5 -19.5t13.5 -24 t3.5 -24q0 -11 -3 -21t-6 -17q-9 -23 -35 -50z"/>
<glyph glyph-name="icircumflex" horiz-adv-x="575" unicode="î" d="M212 778q0 32 1.5 62t6.5 71l-145 -8v86q67 0 111 4.5t72 12.5t43.5 17.5t27.5 20.5h59v-827q0 -41 -1 -72.5t-7 -66.5l129 6v-84h-418v61q46 0 71 18.5t36 51.5t12.5 79t1.5 101v467zM295 1593h4l275 -333l-56 -66l-229 213h-4l-234 -199l-51 60z"/>
<glyph glyph-name="idieresis" horiz-adv-x="575" unicode="ï" d="M530 1368q0 -25 -8.5 -47t-22.5 -38.5t-32.5 -25.5t-38.5 -9q-21 0 -39.5 9t-32.5 25.5t-22 38.5t-8 47q0 26 8.5 48.5t22.5 39.5t33 26.5t39 9.5q22 0 40.5 -9.5t32 -26.5t21 -39.5t7.5 -48.5zM243 1368q0 -25 -8.5 -47t-22.5 -38.5t-32.5 -25.5t-38.5 -9q-21 0 -39.5 9 t-32.5 25.5t-22 38.5t-8 47q0 26 8.5 48.5t22.5 39.5t33 26.5t39 9.5q22 0 40.5 -9.5t32 -26.5t21 -39.5t7.5 -48.5zM212 778q0 32 1.5 62t6.5 71l-145 -8v86q67 0 111 4.5t72 12.5t43.5 17.5t27.5 20.5h59v-827q0 -41 -1 -72.5t-7 -66.5l129 6v-84h-418v61q46 0 71 18.5 t36 51.5t12.5 79t1.5 101v467z"/>
<glyph glyph-name="eth" horiz-adv-x="1145" unicode="ð" d="M846 469q0 48 -5.5 101t-18 104.5t-33.5 98t-52 82t-72.5 56.5t-95.5 21q-67 0 -118.5 -35t-86.5 -95t-53 -138.5t-18 -165.5q0 -110 20.5 -193.5t56.5 -140.5t85.5 -86t107.5 -29q56 0 107 26.5t89.5 79t62.5 131t24 183.5zM299 1274l119 141q-48 21 -99 35.5t-108 19.5 l9 86q73 -4 138.5 -20t126.5 -42l111 130l59 -55l-90 -114q110 -62 196 -156.5t145 -211.5t90.5 -253.5t31.5 -276.5q0 -122 -28.5 -229t-89.5 -187.5t-155 -127t-225 -46.5q-92 0 -172.5 33.5t-140.5 96.5t-94.5 153.5t-34.5 204.5q0 109 31 210.5t89 179.5t141.5 124.5 t189.5 46.5q37 0 78 -7t79.5 -22.5t72 -41.5t56.5 -64h4q-15 61 -43 128t-69 132.5t-95.5 124.5t-123.5 104l-125 -158z"/>
<glyph glyph-name="ntilde" horiz-adv-x="1241" unicode="ñ" d="M213 778q0 32 1 65t7 68l-145 -8v86q67 0 109 4.5t67.5 12.5t39.5 17.5t26 20.5h59q2 -23 4.5 -52.5t4.5 -71.5q33 29 72.5 54t82.5 43.5t88.5 29t89.5 10.5q178 0 260 -111.5t82 -346.5v-382q0 -41 -1 -72.5t-7 -66.5l129 6v-84h-418v61q47 0 71.5 18.5t35.5 51.5 t12.5 79t1.5 101v286q-2 177 -58 266.5t-178 89.5q-37 0 -74 -11t-71 -28.5t-64 -41.5t-52 -52q1 -18 1 -38.5v-41.5l-2 -523q0 -41 -1 -72.5t-7 -66.5l129 6v-84h-418v61q47 0 71.5 18.5t35 51.5t12 79t2.5 101zM490 1364q-38 0 -79.5 -20.5t-70.5 -65.5l-61 35 q13 36 36.5 67.5t52.5 55.5t60 38t60 15q48 0 84 -17t66 -37.5t58 -37.5t62 -17q45 0 85 27t64 72l60 -31q-17 -51 -41.5 -87.5t-53 -60.5t-58 -35.5t-56.5 -11.5q-48 0 -85 17.5t-68.5 38t-59 38t-55.5 17.5z"/>
<glyph glyph-name="ograve" horiz-adv-x="1198" unicode="ò" d="M598 1057q108 0 202 -39.5t163.5 -109t110 -165t40.5 -206.5q0 -119 -39.5 -223t-109 -181t-164 -121.5t-203.5 -44.5q-108 0 -201.5 38.5t-163 107.5t-109.5 164.5t-40 209.5q0 121 39.5 225.5t108.5 181t163 120t203 43.5zM598 979q-81 0 -138.5 -36t-94.5 -96 t-54.5 -138t-17.5 -162q0 -95 19.5 -185t59.5 -159.5t100.5 -111.5t141.5 -42t136.5 36.5t90 96.5t49.5 137t15 158q0 92 -17 182t-54 161t-95.5 115t-140.5 44zM409 1405q-26 27 -35 50q-3 7 -6 17t-3 21q0 13 3.5 24t13.5 24t25.5 19.5t32 6.5t39 -11.5t45.5 -44.5 l172 -276l-57 -47z"/>
<glyph glyph-name="oacute" horiz-adv-x="1198" unicode="ó" d="M598 1057q108 0 202 -39.5t163.5 -109t110 -165t40.5 -206.5q0 -119 -39.5 -223t-109 -181t-164 -121.5t-203.5 -44.5q-108 0 -201.5 38.5t-163 107.5t-109.5 164.5t-40 209.5q0 121 39.5 225.5t108.5 181t163 120t203 43.5zM598 979q-81 0 -138.5 -36t-94.5 -96 t-54.5 -138t-17.5 -162q0 -95 19.5 -185t59.5 -159.5t100.5 -111.5t141.5 -42t136.5 36.5t90 96.5t49.5 137t15 158q0 92 -17 182t-54 161t-95.5 115t-140.5 44zM540 1188l-57 47l172 276q23 33 45.5 44.5t39 11.5t32 -6.5t25.5 -19.5t13.5 -24t3.5 -24q0 -11 -3 -21t-6 -17 q-9 -23 -35 -50z"/>
<glyph glyph-name="ocircumflex" horiz-adv-x="1198" unicode="ô" d="M598 1057q108 0 202 -39.5t163.5 -109t110 -165t40.5 -206.5q0 -119 -39.5 -223t-109 -181t-164 -121.5t-203.5 -44.5q-108 0 -201.5 38.5t-163 107.5t-109.5 164.5t-40 209.5q0 121 39.5 225.5t108.5 181t163 120t203 43.5zM598 979q-81 0 -138.5 -36t-94.5 -96 t-54.5 -138t-17.5 -162q0 -95 19.5 -185t59.5 -159.5t100.5 -111.5t141.5 -42t136.5 36.5t90 96.5t49.5 137t15 158q0 92 -17 182t-54 161t-95.5 115t-140.5 44zM606 1593h4l305 -333l-55 -66l-260 223h-4l-265 -209l-51 60z"/>
<glyph glyph-name="otilde" horiz-adv-x="1198" unicode="õ" d="M598 1057q108 0 202 -39.5t163.5 -109t110 -165t40.5 -206.5q0 -119 -39.5 -223t-109 -181t-164 -121.5t-203.5 -44.5q-108 0 -201.5 38.5t-163 107.5t-109.5 164.5t-40 209.5q0 121 39.5 225.5t108.5 181t163 120t203 43.5zM598 979q-81 0 -138.5 -36t-94.5 -96 t-54.5 -138t-17.5 -162q0 -95 19.5 -185t59.5 -159.5t100.5 -111.5t141.5 -42t136.5 36.5t90 96.5t49.5 137t15 158q0 92 -17 182t-54 161t-95.5 115t-140.5 44zM465 1364q-38 0 -79.5 -20.5t-70.5 -65.5l-61 35q13 36 36.5 67.5t52.5 55.5t60 38t60 15q48 0 84 -17 t66 -37.5t58 -37.5t62 -17q45 0 85 27t64 72l60 -31q-17 -51 -41.5 -87.5t-53 -60.5t-58 -35.5t-56.5 -11.5q-48 0 -85 17.5t-68.5 38t-59 38t-55.5 17.5z"/>
<glyph glyph-name="odieresis" horiz-adv-x="1198" unicode="ö" d="M598 1057q108 0 202 -39.5t163.5 -109t110 -165t40.5 -206.5q0 -119 -39.5 -223t-109 -181t-164 -121.5t-203.5 -44.5q-108 0 -201.5 38.5t-163 107.5t-109.5 164.5t-40 209.5q0 121 39.5 225.5t108.5 181t163 120t203 43.5zM598 979q-81 0 -138.5 -36t-94.5 -96 t-54.5 -138t-17.5 -162q0 -95 19.5 -185t59.5 -159.5t100.5 -111.5t141.5 -42t136.5 36.5t90 96.5t49.5 137t15 158q0 92 -17 182t-54 161t-95.5 115t-140.5 44zM865 1369q0 -25 -8.5 -47t-22.5 -38.5t-32.5 -26t-38.5 -9.5q-21 0 -39.5 9.5t-32.5 26t-22 38.5t-8 47t8.5 48 t22.5 39.5t33 26.5t39 10q22 0 40.5 -10t32 -26.5t21 -39.5t7.5 -48zM523 1369q0 -25 -8.5 -47t-22.5 -38.5t-32.5 -26t-38.5 -9.5q-21 0 -39.5 9.5t-32.5 26t-22 38.5t-8 47t8.5 48t22.5 39.5t33 26.5t39 10q22 0 40.5 -10t32 -26.5t21 -39.5t7.5 -48z"/>
<glyph glyph-name="divide" horiz-adv-x="541" unicode="÷" d="M391 221q0 -27 -10 -51t-26.5 -42t-38 -28t-45.5 -10t-45.5 10t-38 28t-26 42t-9.5 51q0 28 10 52.5t26.5 42.5t38.5 28.5t46 10.5q25 0 46.5 -10.5t37.5 -28.5t25 -42.5t9 -52.5zM391 923q0 -27 -10 -51t-26.5 -42t-38 -28t-45.5 -10t-45.5 10t-38 28t-26 42t-9.5 51 q0 28 10 52.5t26.5 42.5t38.5 28.5t46 10.5q25 0 46.5 -10.5t37.5 -28.5t25 -42.5t9 -52.5z"/>
<glyph glyph-name="oslash" horiz-adv-x="1198" unicode="ø" d="M614 49q81 0 136.5 36.5t90 96.5t49.5 137t15 158q0 46 -4.5 91.5t-12.5 90.5q-7 34 -16 65.5t-22 60.5l-425 -655q40 -40 86 -60.5t103 -20.5zM598 979q-81 0 -138.5 -36t-94.5 -96t-54.5 -138t-17.5 -162q0 -89 17.5 -174.5t52.5 -154.5l423 672q-38 43 -83 66t-105 23 zM598 1057q137 0 252 -64l104 164l97 -63l-108 -167l20 -19q70 -69 110.5 -164t40.5 -207q0 -119 -39.5 -223t-109 -181t-164 -121.5t-203.5 -44.5q-66 0 -127 14t-115 43l-116 -178l-76 56l110 175q-88 69 -139 174t-51 236q0 121 39.5 225.5t108.5 181t163 120t203 43.5z "/>
<glyph glyph-name="ugrave" horiz-adv-x="1223" unicode="ù" d="M850 755q0 50 2 85.5t8 70.5l-147 -6v84h63q44 0 75 4.5t53 12.5t36.5 17.5t26.5 20.5h59l-2 -774q0 -16 -0.5 -40.5t-1.5 -51t-2.5 -53t-3.5 -47.5l147 8v-86h-293q-5 35 -8.5 64.5t-5.5 58.5q-32 -32 -71 -60.5t-82.5 -49.5t-89.5 -33.5t-91 -12.5q-84 0 -147 22.5 t-105 74.5t-63 137.5t-21 212.5v364q0 32 1 65t7 68l-141 -6v84h64q43 0 74 4.5t53 12.5t36.5 17.5t26.5 20.5h59v-624q0 -89 12 -154.5t38.5 -109t68.5 -64t103 -20.5q39 0 76.5 13t71.5 35t63.5 50t50.5 60v85v440zM417 1405q-26 27 -35 50q-3 7 -6 17t-3 21q0 13 3.5 24 t13.5 24t25.5 19.5t32 6.5t39 -11.5t45.5 -44.5l172 -276l-57 -47z"/>
<glyph glyph-name="uacute" horiz-adv-x="1223" unicode="ú" d="M850 755q0 50 2 85.5t8 70.5l-147 -6v84h63q44 0 75 4.5t53 12.5t36.5 17.5t26.5 20.5h59l-2 -774q0 -16 -0.5 -40.5t-1.5 -51t-2.5 -53t-3.5 -47.5l147 8v-86h-293q-5 35 -8.5 64.5t-5.5 58.5q-32 -32 -71 -60.5t-82.5 -49.5t-89.5 -33.5t-91 -12.5q-84 0 -147 22.5 t-105 74.5t-63 137.5t-21 212.5v364q0 32 1 65t7 68l-141 -6v84h64q43 0 74 4.5t53 12.5t36.5 17.5t26.5 20.5h59v-624q0 -89 12 -154.5t38.5 -109t68.5 -64t103 -20.5q39 0 76.5 13t71.5 35t63.5 50t50.5 60v85v440zM582 1188l-57 47l172 276q23 33 45.5 44.5t39 11.5 t32 -6.5t25.5 -19.5t13.5 -24t3.5 -24q0 -11 -3 -21t-6 -17q-9 -23 -35 -50z"/>
<glyph glyph-name="ucircumflex" horiz-adv-x="1223" unicode="û" d="M850 755q0 50 2 85.5t8 70.5l-147 -6v84h63q44 0 75 4.5t53 12.5t36.5 17.5t26.5 20.5h59l-2 -774q0 -16 -0.5 -40.5t-1.5 -51t-2.5 -53t-3.5 -47.5l147 8v-86h-293q-5 35 -8.5 64.5t-5.5 58.5q-32 -32 -71 -60.5t-82.5 -49.5t-89.5 -33.5t-91 -12.5q-84 0 -147 22.5 t-105 74.5t-63 137.5t-21 212.5v364q0 32 1 65t7 68l-141 -6v84h64q43 0 74 4.5t53 12.5t36.5 17.5t26.5 20.5h59v-624q0 -89 12 -154.5t38.5 -109t68.5 -64t103 -20.5q39 0 76.5 13t71.5 35t63.5 50t50.5 60v85v440zM622 1593h4l305 -333l-55 -66l-260 223h-4l-265 -209 l-51 60z"/>
<glyph glyph-name="udieresis" horiz-adv-x="1223" unicode="ü" d="M850 755q0 50 2 85.5t8 70.5l-147 -6v84h63q44 0 75 4.5t53 12.5t36.5 17.5t26.5 20.5h59l-2 -774q0 -16 -0.5 -40.5t-1.5 -51t-2.5 -53t-3.5 -47.5l147 8v-86h-293q-5 35 -8.5 64.5t-5.5 58.5q-32 -32 -71 -60.5t-82.5 -49.5t-89.5 -33.5t-91 -12.5q-84 0 -147 22.5 t-105 74.5t-63 137.5t-21 212.5v364q0 32 1 65t7 68l-141 -6v84h64q43 0 74 4.5t53 12.5t36.5 17.5t26.5 20.5h59v-624q0 -89 12 -154.5t38.5 -109t68.5 -64t103 -20.5q39 0 76.5 13t71.5 35t63.5 50t50.5 60v85v440zM898 1369q0 -25 -8.5 -47t-22.5 -38.5t-32.5 -26 t-38.5 -9.5q-21 0 -39.5 9.5t-32.5 26t-22 38.5t-8 47t8.5 48t22.5 39.5t33 26.5t39 10q22 0 40.5 -10t32 -26.5t21 -39.5t7.5 -48zM556 1369q0 -25 -8.5 -47t-22.5 -38.5t-32.5 -26t-38.5 -9.5q-21 0 -39.5 9.5t-32.5 26t-22 38.5t-8 47t8.5 48t22.5 39.5t33 26.5t39 10 q22 0 40.5 -10t32 -26.5t21 -39.5t7.5 -48z"/>
<glyph glyph-name="yacute" horiz-adv-x="1081" unicode="ý" d="M264 -448q11 -5 23 -5q18 0 46.5 15.5t57.5 65.5q26 45 62.5 134.5t81.5 214.5q-347 743 -366 788t-31.5 79t-20 59t-10.5 42l-99 -5v84h424v-61l-9 -1q-43 -3 -65 -19q-23 -15 -28 -45q-2 -9 -2 -21q0 -25 8 -57q11 -48 281 -613q213 621 226.5 653t26 56t23.5 32 l-141 -8v84h321v-61q-38 -15 -65.5 -38.5t-48.5 -57t-39 -76.5t-293 -809q-47 -129 -86 -229.5t-81.5 -168.5t-93 -103.5t-118.5 -35.5q-32 0 -60 7.5t-49 23t-33 39t-12 54.5q0 19 6 37t17.5 32t28 22.5t36.5 8.5q24 0 40.5 -9t26.5 -23t14 -29.5t4 -27.5q0 -6 -0.5 -13.5 t-2.5 -14.5zM585 1188l-57 47l172 276q23 33 45.5 44.5t39 11.5t32 -6.5t25.5 -19.5t13.5 -24t3.5 -24q0 -11 -3 -21t-6 -17q-9 -23 -35 -50z"/>
<glyph glyph-name="thorn" horiz-adv-x="1182" unicode="þ" d="M567 957q-72 0 -133 -28.5t-106 -76.5l-1 -725q103 -78 240 -78q73 0 131 34t99 95t63 145.5t22 186.5q0 82 -18 162.5t-56 143.5t-97.5 102t-143.5 39zM155 1280q0 32 1 65t7 68l-145 -8v86q67 0 110.5 4.5t71 12.5t43 17.5t27.5 20.5h59l-1 -599q63 51 143 80.5 t165 29.5q93 0 176 -36t145.5 -103t99 -162.5t36.5 -214.5q0 -131 -41.5 -237t-112.5 -181t-166 -115.5t-202 -40.5q-72 0 -132.5 15.5t-111.5 48.5v-336q0 -41 -1 -72.5t-7 -66.5l129 6v-84h-418v61q47 0 71.5 18.5t35 51.5t12 79t2.5 101z"/>
<glyph glyph-name="dotlessi" horiz-adv-x="575" unicode="ı" d="M211 778q0 32 1.5 62t6.5 71l-145 -8v86q67 0 111 4.5t72 12.5t43.5 17.5t27.5 20.5h59v-827q0 -41 -1 -72.5t-7 -66.5l129 6v-84h-418v61q46 0 71 18.5t36 51.5t12.5 79t1.5 101v467z"/>
<glyph glyph-name="OE" horiz-adv-x="2093" unicode="Œ" d="M1073 1333q-60 26 -127 37t-127 11q-108 0 -203 -45.5t-166.5 -131t-113 -208.5t-41.5 -278q0 -149 40 -269t113 -205.5t175 -131.5t225 -46q57 0 109.5 7.5t115.5 24.5v1235zM1407 1358q-58 -2 -89.5 -17t-46.5 -44.5t-17.5 -74.5t-2.5 -108v-330h152q64 0 110 5t75 24 t42.5 57.5t13.5 106.5h68v-447h-68q0 67 -13.5 104t-42.5 54t-75 20t-110 3q-35 0 -76.5 -2t-75.5 -7v-454q0 -57 -1.5 -95.5t-4.5 -64.5l393 -12h15q63 0 114.5 17t88 55.5t56 100t19.5 150.5h71l-14 -399h-915q-82 -17 -153.5 -25t-131.5 -8q-162 0 -290.5 53 t-218.5 147.5t-137.5 224t-47.5 282.5q0 96 19 191.5t57.5 182.5t97.5 162.5t139 131.5t181.5 89t225.5 36q28 0 61 -2.5t66.5 -7t67.5 -10.5t64 -13h844l10 -359h-68q0 88 -20.5 144t-55.5 88t-83.5 43.5t-103.5 11.5h-13z"/>
<glyph glyph-name="oe" horiz-adv-x="1806" unicode="œ" d="M1309 977q-112 0 -176 -74.5t-87 -226.5h469q-1 58 -11.5 112t-34.5 95.5t-64 67.5t-96 26zM571 979q-77 0 -129.5 -36t-85 -96t-47 -138t-14.5 -162q0 -95 15.5 -185t50 -159.5t89.5 -111.5t133 -42q84 0 136.5 41.5t81.5 107.5t39 147.5t10 162.5q0 74 -19 170.5 t-52.5 160.5t-84.5 102t-123 38zM1708 602l-668 -12q0 -118 17 -213.5t55 -163t98.5 -104.5t147.5 -37q48 0 94.5 13t88.5 35.5t77.5 54t60.5 67.5l51 -41q-42 -64 -93.5 -108.5t-107 -72.5t-112 -40.5t-108.5 -12.5q-60 0 -116.5 13.5t-105.5 39.5t-89 65.5t-68 90.5h-2 q-60 -97 -150.5 -153t-208.5 -56q-107 0 -196 38.5t-153 107.5t-99 164.5t-35 209.5q0 121 34.5 225.5t98 181t152.5 120t198 43.5q125 0 216.5 -55.5t157.5 -161.5h2q28 46 66.5 85.5t86.5 68.5t103.5 46t117.5 17q85 0 156.5 -28t123 -85t80.5 -142.5t29 -199.5z"/>
<glyph glyph-name="Scaron" horiz-adv-x="1161" unicode="Š" d="M237 -16h-106l-12 436h79q6 -91 39 -159.5t86.5 -114.5t124.5 -69.5t152 -23.5q60 0 113.5 16.5t94 49t64 80.5t23.5 110q0 75 -33 129t-87.5 95.5t-124 75t-141.5 67t-141.5 71t-124 87t-87.5 115.5t-33 157q0 35 8 75t26.5 80t49 77.5t76.5 66t109 45.5t146 17 q40 0 85 -5t91.5 -17t92.5 -32.5t88 -51.5l-8 88h104v-449h-74q-5 74 -28.5 143.5t-68.5 123t-111 86t-156 32.5q-64 0 -113 -19.5t-82 -52.5t-50 -76.5t-17 -91.5q0 -70 33.5 -121.5t88.5 -91.5t125 -73t143 -66.5t143 -72t125 -89t88.5 -117.5t33.5 -158q0 -85 -32 -156.5 t-93 -123t-150.5 -80.5t-203.5 -29q-46 0 -94.5 6.5t-96 19.5t-92 33t-82.5 46zM565 1528h-4l-377 289l45 69l340 -180h4l348 184l41 -65z"/>
<glyph glyph-name="scaron" horiz-adv-x="948" unicode="š" d="M474 47q39 0 78.5 9.5t72 29.5t53 50.5t20.5 72.5q0 49 -25.5 83.5t-67 61t-95 47.5t-109 43t-108.5 48.5t-94.5 62.5t-67 86t-25.5 119q0 43 16 94.5t56 96.5t107.5 75.5t170.5 30.5q28 0 59.5 -4t64.5 -14.5t66 -27.5t65 -42l-5 78h86v-359h-64q-4 53 -20.5 105 t-48 93.5t-79.5 67.5t-114 26q-48 0 -85 -12.5t-62.5 -34t-38.5 -49.5t-13 -59q0 -50 25.5 -86t67.5 -64t96 -50.5t110 -46t110 -50t96 -62.5t67.5 -84t25.5 -114q0 -77 -31 -134t-81.5 -94t-114 -55t-128.5 -18q-104 0 -183 27.5t-130 62.5l7 -71h-86l-12 352h63 q4 -64 29.5 -117.5t67 -92t95 -60t113.5 -21.5zM467 1174h-4l-305 333l55 66l261 -223h4l264 227l51 -59z"/>
<glyph glyph-name="Ydieresis" horiz-adv-x="1298" unicode="Ÿ" d="M581 553l-355 563q-53 82 -78 137.5t-33 94.5l-127 -5v91h528v-68q-71 0 -108 -16q-38 -16 -48 -46q-5 -13 -4 -29q0 -19 8 -42q14 -41 44 -90q38 -61 72 -115.5t68 -107.5t70.5 -108t80.5 -116h4q229 436 273 516t58 101t29 37l-162 -7v91h418v-68q-51 -3 -91 -20 t-75 -49.5t-67.5 -81t-326.5 -601.5q-1 -98 -1 -234q0 -45 -1 -76q0 -60 1 -60q0 -110 -6 -162l170 8v-90h-481v68q57 2 86 22t41 53.5t12 78.5v97zM581 1718q0 -27 -9 -50.5t-24.5 -41t-36 -27.5t-42.5 -10q-23 0 -43 10t-35 27.5t-24 41t-9 50.5t9 51t25 42t36 28.5 t43 10.5t43 -10.5t35 -28.5t23.5 -42t8.5 -51zM949 1718q0 -27 -9 -50.5t-24.5 -41t-36 -27.5t-42.5 -10q-23 0 -43 10t-35 27.5t-24 41t-9 50.5t9 51t25 42t36 28.5t43 10.5t43 -10.5t35 -28.5t23.5 -42t8.5 -51z"/>
<glyph glyph-name="circumflex" horiz-adv-x="819" unicode="ˆ" d="M418 1593h4l305 -333l-55 -66l-260 223h-4l-265 -209l-51 60z"/>
<glyph glyph-name="caron" horiz-adv-x="819" unicode="ˇ" d="M401 1174h-4l-305 333l55 66l261 -223h4l264 227l51 -59z"/>
<glyph glyph-name="ring" horiz-adv-x="651" unicode="˚" d="M324 1559q36 0 71.5 -11t64 -34t47.5 -60.5t19 -79.5q0 -52 -16.5 -88t-44.5 -63t-63.5 -41.5t-73.5 -14.5t-74.5 11.5t-65 35.5t-46 60.5t-17.5 87.5q0 44 17.5 80t45.5 62t63.5 40.5t72.5 14.5zM324 1495q-35 0 -63 -31.5t-28 -91.5q0 -29 6.5 -54.5t19 -45t30.5 -30.5 t41 -11q38 0 63 32.5t25 88.5q0 66 -24.5 104.5t-69.5 38.5z"/>
<glyph glyph-name="tilde" horiz-adv-x="831" unicode="˜" d="M283 1364q-38 0 -79.5 -20.5t-70.5 -65.5l-61 35q13 36 36.5 67.5t52.5 55.5t60 38t60 15q48 0 84 -17t66 -37.5t58 -37.5t62 -17q45 0 85 27t64 72l60 -31q-17 -51 -41.5 -87.5t-53 -60.5t-58 -35.5t-56.5 -11.5q-48 0 -85 17.5t-68.5 38t-59 38t-55.5 17.5z"/>
<glyph glyph-name="Gamma" horiz-adv-x="1122" unicode="Γ" d="M1006 1075q0 91 -22.5 147.5t-61 88t-88 41.5t-101.5 10h-10l-149 -4q-57 -2 -86.5 -21.5t-41.5 -53t-12.5 -79t-0.5 -98.5v-862q0 -56 -1.5 -96t-5.5 -66l209 8v-90h-522v68q58 2 87 21t41 52t12.5 78.5t0.5 99.5v885q0 42 1.5 79.5t5.5 68.5l-148 -9v91h950l11 -359 h-68z"/>
<glyph glyph-name="Delta" horiz-adv-x="1430" unicode="Δ" d="M226 124l921 -6l-474 1216zM780 1467l594 -1467h-1317l560 1467h163z"/>
<glyph glyph-name="Pi" horiz-adv-x="1557" unicode="Π" d="M1445 1366q-57 -2 -86.5 -21.5t-41.5 -52.5t-12.5 -78t-0.5 -100v-870q0 -110 -6 -162l147 8v-90h-461v68q58 2 87.5 21t41.5 52t12.5 78.5t0.5 99.5v1034l-557 -7q-44 -2 -70 -14.5t-40.5 -33.5t-19.5 -50.5t-6 -65.5v-938q0 -56 -1.5 -96t-5.5 -66l148 8v-90h-461v68 q58 2 87 21t41 52t12.5 78.5t0.5 99.5v885q0 42 1.5 79.5t5.5 68.5l-148 -9v91h1332v-68z"/>
<glyph glyph-name="pi" horiz-adv-x="1186" unicode="π" d="M136 145q42 0 76 -31q32 10 54 57.5t35.5 118t20.5 156t10 170.5t3 162v132q-39 0 -69 -2.5t-55.5 -7.5t-49 -13.5t-49.5 -21.5l-33 45q22 26 49.5 51t61.5 44.5t75 31.5t89 12q79 0 155.5 -6t145.5 -13.5t127.5 -13.5t101.5 -6q27 0 50.5 2t46.5 7.5t48 14.5t54 23 l35 -43q-11 -15 -27.5 -33t-38 -36t-48 -34t-56.5 -26l-2 -617q0 -53 5 -89.5t16.5 -59t28 -32.5t38.5 -10q14 0 32.5 6t36.5 19l25 -33q-13 -18 -34 -36t-46.5 -32.5t-54.5 -24t-58 -9.5q-54 0 -87 22.5t-51 55.5t-24 69.5t-6 65.5q0 4 0.5 45.5t0.5 105t1 141t1 153 t0.5 141.5t0.5 107q-99 5 -184 17t-168 17v-123t-1.5 -138t-4 -143t-8.5 -138t-15 -122.5t-22 -95.5q-15 -44 -38.5 -77.5t-52 -56.5t-61.5 -34.5t-67 -11.5q-39 0 -68.5 22.5t-29.5 68.5q0 24 9 41t21.5 27t27.5 14.5t27 4.5z"/>
<glyph glyph-name="endash" horiz-adv-x="1208" unicode="–" d="M135 727h932v-135l-932 -8v143z"/>
<glyph glyph-name="emdash" horiz-adv-x="1434" unicode="—" d="M135 727h1157v-135l-1157 -8v143z"/>
<glyph glyph-name="quoteleft" horiz-adv-x="459" unicode="‘" d="M301.012 1513.98q-16.999 -20.999 -35.998 -56.9971q-18.999 -35.9971 -33.498 -79.9951q-14.499 -43.9971 -22.499 -91.9941q-4.99902 -27.998 -4.99902 -54.9961q0 -19.999 3 -40.998q28.998 12.999 55.4961 10.999q26.498 -1.99902 46.4971 -14.999 q19.999 -12.999 31.498 -34.998q11.499 -21.998 11.499 -48.9961q0 -56.9971 -32.998 -87.9951q-32.9971 -30.998 -79.9941 -30.998q-34.998 0 -61.9971 14.499q-26.998 14.499 -45.4971 39.498q-18.499 24.998 -27.998 58.9961t-9.49902 72.9951q0 38.998 10.999 91.4951 q10.999 52.4961 30.998 106.493t47.9971 104.493q27.998 50.4971 61.9961 84.4951z"/>
<glyph glyph-name="quotesinglbase" horiz-adv-x="518" unicode="‚" d="M186 -325q17 21 36 57t33.5 80t22.5 92q5 28 5 55q0 20 -3 41q-29 -13 -55.5 -11t-46.5 15t-31.5 35t-11.5 49q0 57 33 88t80 31q35 0 62 -14.5t45.5 -39.5t28 -59t9.5 -73t-11 -91.5t-31 -106.5t-48 -104.5t-62 -84.5z"/>
<glyph glyph-name="quotedblleft" horiz-adv-x="819" unicode="“" d="M301.012 1513.98q-16.999 -20.999 -35.998 -56.9971q-18.999 -35.9971 -33.498 -79.9951q-14.499 -43.9971 -22.499 -91.9941q-4.99902 -27.998 -4.99902 -54.9961q0 -19.999 3 -40.998q28.998 12.999 55.4961 10.999q26.498 -1.99902 46.4971 -14.999 q19.999 -12.999 31.498 -34.998q11.499 -21.998 11.499 -48.9961q0 -56.9971 -32.998 -87.9951q-32.9971 -30.998 -79.9941 -30.998q-34.998 0 -61.9971 14.499q-26.998 14.499 -45.4971 39.498q-18.499 24.998 -27.998 58.9961t-9.49902 72.9951q0 38.998 10.999 91.4951 q10.999 52.4961 30.998 106.493t47.9971 104.493q27.998 50.4971 61.9961 84.4951zM662.012 1513.98q-16.999 -20.999 -35.998 -56.9971q-18.999 -35.9971 -33.498 -79.9951q-14.499 -43.9971 -22.499 -91.9941q-4.99902 -27.998 -4.99902 -54.9961q0 -19.999 3 -40.998 q28.998 12.999 55.4961 10.999q26.498 -1.99902 46.4971 -14.999q19.999 -12.999 31.498 -34.998q11.499 -21.998 11.499 -48.9961q0 -56.9971 -32.998 -87.9951q-32.9971 -30.998 -79.9941 -30.998q-34.998 0 -61.9971 14.499q-26.998 14.499 -45.4971 39.498 q-18.499 24.998 -27.998 58.9961t-9.49902 72.9951q0 38.998 10.999 91.4951q10.999 52.4961 30.998 106.493t47.9971 104.493q27.998 50.4971 61.9961 84.4951z"/>
<glyph glyph-name="quotedblright" horiz-adv-x="715" unicode="”" d="M102 1025q17 21 36 57t33.5 80t22.5 92q5 28 5 55q0 20 -3 41q-29 -13 -55.5 -11t-46.5 15t-31.5 35t-11.5 49q0 57 33 88t80 31q35 0 62 -14.5t45.5 -39.5t28 -59t9.5 -73t-11 -91.5t-31 -106.5t-48 -104.5t-62 -84.5zM462 1025q17 21 36 57t33.5 80t22.5 92q5 28 5 55 q0 20 -3 41q-29 -13 -55.5 -11t-46.5 15t-31.5 35t-11.5 49q0 57 33 88t80 31q35 0 62 -14.5t45.5 -39.5t28 -59t9.5 -73t-11 -91.5t-31 -106.5t-48 -104.5t-62 -84.5z"/>
<glyph glyph-name="dagger" horiz-adv-x="1049" unicode="†" d="M496 -555q-9 142 -16 285.5t-15 285.5t-19.5 282t-29.5 275q23 57 44 140t44 198q-75 -16 -150.5 -30.5t-150.5 -24.5q-23 -3 -45 -3q-20 0 -39 3.5t-33.5 11.5t-23.5 22.5t-9 37.5q0 22 8.5 36.5t23 22.5t33.5 11.5t39 3.5q23 0 46 -3q75 -10 151 -24.5t151 -30.5 q-8 46 -18.5 103t-21 118t-19.5 123t-12 96.5t-3 39.5q0 23 5 46.5t16.5 42.5t29.5 31t45 12q25 0 42.5 -11.5t28.5 -30.5t15.5 -42t4.5 -46q0 -5 -3.5 -40.5t-12.5 -97.5t-19 -123t-20.5 -118t-19.5 -103q76 16 152 30.5t151 24.5q22 3 46 3q20 0 39 -3.5t33.5 -11.5 t23 -22.5t8.5 -36.5q0 -23 -9 -37.5t-23.5 -22.5t-33.5 -11.5t-39 -3.5q-24 0 -45 3q-75 10 -150.5 24.5t-151.5 29.5q24 -115 45 -197.5t44 -139.5q-18 -135 -29.5 -275t-19.5 -282t-15 -285.5t-16 -285.5h-57z"/>
<glyph glyph-name="daggerdbl" horiz-adv-x="1087" unicode="‡" d="M652 502q-11 -28 -21.5 -72.5t-21.5 -97.5t-22.5 -112.5t-23.5 -117.5q76 16 151.5 30.5t150.5 24.5q21 3 45 3q20 0 39 -3.5t33.5 -12t23.5 -23t9 -36.5t-8.5 -36.5t-23 -22.5t-33.5 -11.5t-39 -3.5q-24 0 -46 3q-75 9 -151 24t-152 31q9 -46 19.5 -104.5t20.5 -121.5 t19 -127t15 -121q0 -4 0.5 -8t0.5 -9q0 -23 -5 -46.5t-16.5 -43t-30 -31.5t-44.5 -12t-43.5 12t-28 30.5t-15 42t-4.5 46.5v9.5t1 9.5q5 57 14 121t19.5 127t21 121.5t18.5 104.5q-75 -16 -151 -31t-151 -24q-23 -3 -46 -3q-20 0 -39 3.5t-33.5 11.5t-23 22.5t-8.5 36.5 t9 36.5t23.5 23t33.5 12t39 3.5q22 0 45 -3q75 -10 150.5 -25t150.5 -30q-12 58 -23 117.5t-21.5 112.5t-21.5 97t-22 73q11 28 21.5 71.5t21.5 96.5t22 111.5t23 116.5q-75 -16 -150.5 -30.5t-150.5 -24.5q-23 -3 -45 -3q-20 0 -39 3.5t-33.5 11.5t-23.5 22.5t-9 37.5 q0 22 8.5 36.5t23 22.5t33.5 11.5t39 3.5q23 0 46 -3q75 -10 151 -24.5t151 -30.5q-8 46 -18.5 105t-21 122.5t-19.5 127.5t-14 121q-1 4 -1 8v9q0 23 5 46.5t16.5 42.5t29.5 31t45 12q25 0 42.5 -11.5t28.5 -30.5t15.5 -42t4.5 -46q0 -5 -0.5 -9.5t-0.5 -9.5 q-6 -57 -15 -121t-19 -127.5t-20.5 -122.5t-19.5 -105q76 16 152 30.5t151 24.5q22 3 46 3q20 0 39 -3.5t33.5 -11.5t23 -22.5t8.5 -36.5q0 -23 -9 -37.5t-23.5 -22.5t-33.5 -11.5t-39 -3.5q-24 0 -45 3q-75 10 -150.5 24.5t-151.5 29.5q12 -58 23 -116.5t22 -111t22 -96 t22 -71.5z"/>
<glyph glyph-name="ellipsis" horiz-adv-x="1610" unicode="…" d="M1476 98q0 -27 -10 -51t-26.5 -42t-38 -28t-45.5 -10t-45.5 10t-38 28t-26 42t-9.5 51q0 28 10 52.5t26.5 42.5t38.5 28.5t46 10.5q25 0 46.5 -10.5t37.5 -28.5t25 -42.5t9 -52.5zM923 98q0 -27 -10 -51t-26.5 -42t-38 -28t-45.5 -10t-45.5 10t-38 28t-26 42t-9.5 51 q0 28 10 52.5t26.5 42.5t38.5 28.5t46 10.5q25 0 46.5 -10.5t37.5 -28.5t25 -42.5t9 -52.5zM370 98q0 -27 -10 -51t-26.5 -42t-38 -28t-45.5 -10t-45.5 10t-38 28t-26 42t-9.5 51q0 28 10 52.5t26.5 42.5t38.5 28.5t46 10.5q25 0 46.5 -10.5t37.5 -28.5t25 -42.5t9 -52.5z "/>
<glyph glyph-name="perthousand" horiz-adv-x="2644" unicode="‰" d="M1716 364q0 -71 -24 -141.5t-71 -127t-116 -92t-159 -36.5h-11q-88 0 -157.5 31.5t-116.5 85.5t-70.5 122.5t-23.5 139.5q0 79 30 151.5t81.5 128t120.5 88.5t147 33q91 0 160.5 -32t116 -85.5t70 -122.5t23.5 -143zM1540 331q0 33 -3.5 70.5t-12.5 75t-24 72t-37 61 t-53 42t-71 15.5q-56 0 -93 -27t-59.5 -69t-32 -93t-9.5 -99q0 -52 10 -111t34 -109.5t63 -84t96 -33.5q58 0 95 30.5t58.5 75.5t30 95t8.5 89zM80 1070q0 72 24 142t71.5 126.5t116.5 91.5t159 37h11q88 0 157 -31.5t115.5 -85t69.5 -122.5t23 -139q0 -79 -29.5 -152 t-80.5 -128.5t-119.5 -88.5t-146.5 -33q-92 0 -161 32t-116 85.5t-70.5 122.5t-23.5 143zM1506 1385l-1162 -1420l-87 72l1156 1430zM256 1103q0 -49 8.5 -107.5t31 -109.5t61.5 -85t100 -34q56 0 93 27.5t59.5 69.5t32 93t9.5 99q0 51 -9.5 110.5t-32 110t-61 84 t-95.5 33.5q-58 0 -96 -31t-60.5 -75.5t-31.5 -95t-9 -89.5zM2576 364q0 -71 -24 -141.5t-71 -127t-116 -92t-159 -36.5h-11q-88 0 -157.5 31.5t-116.5 85.5t-70.5 122.5t-23.5 139.5q0 79 30 151.5t81.5 128t120.5 88.5t147 33q91 0 160.5 -32t116 -85.5t70 -122.5 t23.5 -143zM2400 331q0 33 -3.5 71t-12.5 75.5t-24 72t-37 60.5t-53 41.5t-71 15.5q-56 -1 -93 -28t-59.5 -69t-32 -92.5t-9.5 -98.5q0 -52 10 -111t34 -109.5t63 -84t96 -33.5q58 0 95 30.5t58.5 75.5t30 95t8.5 89z"/>
<glyph glyph-name="guilsinglleft" horiz-adv-x="784" unicode="‹" d="M64 569l555 555l66 -65l-400 -486v-4l404 -518l-64 -65l-561 575v8z"/>
<glyph glyph-name="guilsinglright" horiz-adv-x="784" unicode="›" d="M719 569v-8l-561 -575l-64 65l404 518v4l-400 486l66 65z"/>
<glyph glyph-name="fraction" horiz-adv-x="975" unicode="⁄" d="M1009 1402l-969 -1435l-77 53l956 1447z"/>
<glyph glyph-name="uni2074" horiz-adv-x="825" unicode="⁴" d="M180 921l250 -4v351h-2zM631 625h-301v59q31 1 51 11.5t31 28t15 42t4 54.5v20h-347v61l408 566h54v-553h116v-74h-115v-149l84 4v-70z"/>
<glyph glyph-name="Euro" horiz-adv-x="1556" unicode="€" d="M940 1381q-84 0 -160 -30t-138.5 -87.5t-108.5 -141.5t-69 -193l689 -3l-55 -115l-650 -3q-3 -41 -3 -85q0 -24 1 -47.5t3 -46.5l565 -2l-57 -115l-487 -2q24 -99 70.5 -178.5t110.5 -135.5t143.5 -86t170.5 -30q135 0 251.5 56t201.5 171l53 -43q-66 -91 -138 -149 t-144.5 -91t-143 -45t-133.5 -12q-130 0 -237 40.5t-188 112.5t-135 171.5t-78 217.5l-202 -1l29 123l159 -1q-3 40 -3 81q0 48 6 96h-191l29 123l185 -1q28 109 83 207t135.5 171.5t186 116.5t235.5 43q110 0 201 -30t179 -88l3 101h111l-41 -414h-74q-11 73 -36.5 136 t-69 109.5t-107.5 73t-152 26.5z"/>
<glyph glyph-name="trademark" horiz-adv-x="2187" unicode="™" d="M435 1356l-131 -1q-63 -1 -88 -49.5t-25 -142.5h-62l7 271h743l8 -271h-61q-2 50 -9.5 87t-24.5 61t-46 35.5t-74 11.5l-90 -1v-583v-36v-25.5t-2 -22.5l94 4v-73h-334v57q29 0 47.5 9.5t29 26.5t14.5 40t4 51v551zM961 1434h264l182 -439q21 -51 43 -106t49 -115h2 q38 87 71 167.5t65.5 160t65.5 161.5t68 171h241v-68q-26 -1 -43 -9.5t-27 -23t-13.5 -35t-3.5 -45.5q0 -8 16 -242.5t17 -251.5t0 -34v-35l101 4v-71h-338v57h12q48 5 65.5 37.5t17.5 84.5q0 6 -0.5 12.5t-27.5 434.5h-2l-260 -637h-96q-38 85 -80 178t-81 184t-73 173.5 t-55 145.5h-2q0 -18 -0.5 -36.5t-1.5 -35.5l-16 -447q-2 -26 -4 -47.5t-7 -38.5l101 6v-69h-289v57q31 1 50 11.5t30 29t15.5 44.5t6.5 58q6 124 10 210.5t6.5 145t3.5 92t1.5 51t1 24t1.5 9.5l-87 -5v82z"/>
<glyph glyph-name="partialdiff" horiz-adv-x="1042" unicode="∂" d="M764 721q0 24 -0.5 49.5t-0.5 51.5q-36 67 -87.5 96.5t-120.5 29.5q-54 0 -108 -33.5t-97.5 -98t-70.5 -159.5t-27 -217q0 -95 16 -169t44 -124t66 -76t83 -26q59 0 104.5 32.5t79 86.5t56.5 124.5t37 145.5t20 149.5t6 137.5zM258 1553q34 3 68 3q112 0 200.5 -30.5 t155.5 -85.5t114 -132.5t77 -171t43.5 -201t13.5 -222.5q0 -207 -41.5 -349.5t-111.5 -230.5t-161.5 -127t-191.5 -39q-69 0 -132 28.5t-111 85.5t-76.5 141.5t-28.5 195.5q0 138 38 251t102.5 193.5t149 124t177.5 43.5q60 0 115 -21t99 -66q-5 67 -17 133.5t-34 126.5 t-57 111.5t-86 89t-120.5 59t-160.5 21.5h-24v69z"/>
<glyph glyph-name="product" horiz-adv-x="1628" unicode="∏" d="M1515 1366q-57 -2 -86.5 -21.5t-41.5 -52.5t-12.5 -78t-0.5 -100v-1392q0 -110 -6 -162l147 8v-90h-461v68q58 2 87.5 21t41.5 52t12.5 78.5t0.5 99.5v1556l-763 -9v-1622q0 -56 -1.5 -96t-5.5 -66l148 8v-90h-461v68q58 2 87 21t41 52t12.5 78.5t0.5 99.5v1407 q0 42 1.5 79.5t5.5 68.5l-148 -9v91h1402v-68z"/>
<glyph glyph-name="summation" horiz-adv-x="1305" unicode="∑" d="M1087 1075q0 88 -20.5 144t-56 88t-83.5 43.5t-103 11.5h-13l-469 -10q15 -21 28 -43t25 -45l391 -762l-440 -782q-26 -46 -51.5 -86.5t-51.5 -73.5q151 -2 254.5 -3t170.5 -2t103 -1h91q64 0 115 17.5t87 56t55 100t19 149.5h70l-12 -399h-1118v90q19 0 39 13t38.5 32.5 t35 43t28.5 44.5l414 723l-424 803q-24 45 -36.5 73t-15.5 48l-94 -5v91h1082l10 -359h-68z"/>
<glyph glyph-name="minus" horiz-adv-x="1212" unicode="−" d="M150 655l912 -4v-125l-912 -4v133z"/>
<glyph glyph-name="radical" horiz-adv-x="1726" unicode="√" d="M4 1024h401l302 -771l442 1512h624v-85l-542 8l-500 -1694h-102l-320 786q-26 63 -40 102t-19 64l-246 6v72z"/>
<glyph glyph-name="infinity" horiz-adv-x="1792" unicode="∞" d="M513 432q96 0 179 52.5t149 158.5l-7 12q-29 51 -61 107.5t-72 104.5t-91 79t-118 31q-49 0 -94.5 -17t-80.5 -51t-56 -84t-21 -116q0 -61 20.5 -112t57 -87.5t86.5 -57t109 -20.5zM1287 432q64 0 114 23.5t83.5 63t51 93t17.5 113.5q0 61 -17.5 112.5t-49 89.5 t-75.5 59.5t-98 21.5q-46 0 -92 -11.5t-92 -39t-91 -72.5t-89 -112q32 -61 66.5 -122t75 -109.5t89 -79t107.5 -30.5zM508 1139q61 0 114 -18.5t100 -54.5t91 -89t88 -122q31 63 74 116.5t95 93t110.5 62t120.5 22.5q92 0 157 -34.5t105.5 -94.5t59 -140.5t18.5 -172.5 q0 -88 -24.5 -166t-69.5 -137t-108.5 -93.5t-141.5 -34.5q-54 0 -104 13.5t-99.5 46.5t-100 88.5t-105.5 140.5q-29 -58 -67.5 -109t-85.5 -89t-101.5 -60t-114.5 -22q-100 0 -169.5 39.5t-113 102.5t-63 141t-19.5 155q0 87 25 163t71 132.5t111.5 88.5t146.5 32z"/>
<glyph glyph-name="approxequal" horiz-adv-x="1212" unicode="≈" d="M404 453q-42 0 -76 -7.5t-64 -20.5t-57 -29.5t-55 -35.5v121q32 24 61.5 43t60 32.5t64 20t74.5 6.5q55 0 96 -11t73 -27t58.5 -35t54 -35t59 -26.5t73.5 -10.5q68 0 127.5 24.5t108.5 66.5v-121q-42 -44 -102.5 -72t-141.5 -28q-51 0 -90.5 11t-71.5 27t-60 34.5 t-57 34.5t-61.5 27t-73.5 11zM404 780q-42 0 -76 -7t-64 -20t-57 -30t-55 -35v121q32 24 61.5 43t60 32.5t64 20t74.5 6.5q55 0 96 -11t73 -27t58.5 -35t54 -35t59 -26.5t73.5 -10.5q68 0 127.5 24.5t108.5 66.5v-121q-42 -45 -102.5 -72.5t-141.5 -27.5q-51 0 -90.5 11 t-71.5 27t-60 34.5t-57 34.5t-61.5 26.5t-73.5 10.5z"/>
<glyph glyph-name="notequal" horiz-adv-x="1145" unicode="≠" d="M115 879l571 -3l169 254l94 -65l-127 -189l205 -1v-119l-286 -2l-176 -262l462 -2v-119l-544 -3l-192 -286l-90 65l147 221l-233 -1v127l316 -2l174 262l-490 -2v127z"/>
<glyph glyph-name="lessequal" horiz-adv-x="1186" unicode="≤" d="M120 746l912 405v-127l-773 -340l773 -342v-131l-912 397v138zM119 115l912 -9v-106h-912v115z"/>
<glyph glyph-name="greaterequal" horiz-adv-x="1186" unicode="≥" d="M1068 620l-912 -405v127l773 340l-773 342v131l912 -397v-138zM1069 0h-912v106l912 9v-115z"/>
<glyph glyph-name="lozenge" horiz-adv-x="997" unicode="◊" d="M525 -34h-53l-398 754v54l408 782h53l387 -768v-53zM507 169h4l295 590l-299 605h-5l-299 -603z"/>
<glyph glyph-name="Circumflex" horiz-adv-x="963" unicode="" d="M489 1907h5l376 -289l-45 -70l-340 181h-4l-348 -179l-41 66z"/>
<glyph glyph-name="Ring" horiz-adv-x="655" unicode="" d="M326 1917q41 0 82 -12.5t74.5 -39t55 -66.5t23.5 -95q0 -56 -19.5 -100t-52 -75.5t-74 -48t-85.5 -16.5t-86.5 13t-75.5 40.5t-53.5 69.5t-20.5 100q0 52 20.5 94.5t53.5 72.5t74.5 46.5t83.5 16.5zM319 1847q-48 -3 -77 -42t-29 -105q0 -74 32.5 -119t87.5 -45 q21 0 41 9.5t35 27.5t24 43.5t9 58.5q0 85 -32.5 128.5t-83.5 43.5h-7z"/>
<glyph glyph-name="Tilde" horiz-adv-x="975" unicode="" d="M313 1737q-44 0 -78.5 -33t-72.5 -90l-70 39q18 45 44.5 83t57 66t64 44.5t66.5 17.5q40 0 72.5 -10.5t59.5 -26.5t50.5 -35t46.5 -35t46.5 -26.5t51.5 -10.5q27 0 51 11t44.5 29t38 42t32.5 51l66 -32q-22 -63 -50 -107t-60 -71t-66 -39.5t-68 -12.5q-40 0 -72.5 11 t-60.5 27t-52.5 35t-48 35t-46 27t-46.5 11z"/>
<glyph glyph-name="Acute" horiz-adv-x="594" unicode="" d="M113 1556l-45 60l258 246q30 26 54 32q15 4 29 4q7 0 13 -2q18 -4 28.5 -12t13.5 -12q5 -6 10 -20q3 -8 3 -19q0 -6 -1 -13q-3 -18 -17 -39t-49 -42z"/>
<glyph glyph-name="Caron" horiz-adv-x="963" unicode="" d="M473 1528h-4l-377 289l45 69l340 -180h4l348 184l41 -65z"/>
<glyph glyph-name="Dieresis" horiz-adv-x="776" unicode="" d="M315 1718q0 -27 -9 -50.5t-24.5 -41t-36 -27.5t-42.5 -10q-23 0 -43 10t-35 27.5t-24 41t-9 50.5t9 51t25 42t36 28.5t43 10.5t43 -10.5t35 -28.5t23.5 -42t8.5 -51zM683 1718q0 -27 -9 -50.5t-24.5 -41t-36 -27.5t-42.5 -10q-23 0 -43 10t-35 27.5t-24 41t-9 50.5t9 51 t25 42t36 28.5t43 10.5t43 -10.5t35 -28.5t23.5 -42t8.5 -51z"/>
<glyph glyph-name="Grave" horiz-adv-x="594" unicode="" d="M160 1739q-35 21 -49 42t-17 39q-1 7 -1 13q0 11 3 19q5 14 10 20q3 4 14 12q10 8 28 12q6 1 13 2q13 0 29 -4q24 -6 54 -32l258 -246l-45 -60z"/>
</font>
</defs>
</svg>
